<?xml version="1.0" standalone="no"?>
<!DOCTYPE svg PUBLIC "-//W3C//DTD SVG 1.1//EN" "http://www.w3.org/Graphics/SVG/1.1/DTD/svg11.dtd" >
<svg xmlns="http://www.w3.org/2000/svg" xmlns:xlink="http://www.w3.org/1999/xlink" version="1.1">
<metadata>
Created by FontForge 20201107 at Fri Mar  8 07:19:33 2024
 By 
Copyright (c) 1987, 1991, 1993, 2002 Adobe Systems Incorporated.  All Rights Reserved.
</metadata>
<defs>
<font id="FuturaStd-Heavy" horiz-adv-x="1183" >
  <font-face 
    font-family="Futura Std Medium"
    font-weight="650"
    font-stretch="normal"
    units-per-em="2048"
    panose-1="2 11 7 2 2 2 4 2 2 3"
    ascent="1690"
    descent="-358"
    x-height="1006"
    cap-height="1544"
    bbox="-303 -541 2413 2052"
    underline-thickness="102"
    underline-position="-204"
    unicode-range="U+0020-FB02"
  />
<missing-glyph horiz-adv-x="1024" 
d="M0 0v1434h1024v-1434h-1024zM512 809l348 522h-696zM573 717l349 -522v1044zM164 102h696l-348 523zM102 1239v-1044l349 522z" />
    <glyph glyph-name="fi" unicode="fi" horiz-adv-x="1114" 
d="M399 764v-764h-286v764h-97v242h97v294q0 96 21 176.5t64.5 145.5t118.5 102t175 37q77 0 137 -32v-256q-70 34 -117 34q-21 0 -37.5 -5t-28 -17t-20 -23t-13.5 -31.5t-8.5 -33.5t-4.5 -37t-1.5 -35t0 -35.5t0.5 -29.5v-254h230v-242h-230zM997 1006v-1006h-286v1006h286
zM854 1597q70 0 120 -50.5t50 -119.5q0 -71 -50 -120.5t-120 -49.5t-120 49.5t-50 120.5q0 69 50 119.5t120 50.5z" />
    <glyph glyph-name="fl" unicode="fl" horiz-adv-x="1112" 
d="M1010 1737v-1737h-287v1737h287zM399 764v-764h-286v764h-97v242h97v294q0 96 21 176.5t64.5 145.5t118.5 102t175 37q77 0 137 -32v-256q-70 34 -117 34q-21 0 -37.5 -5t-28 -17t-20 -23t-13.5 -31.5t-8.5 -33.5t-4.5 -37t-1.5 -35t0 -35.5t0.5 -29.5v-254h230v-242
h-230z" />
    <glyph glyph-name=".notdef" horiz-adv-x="1024" 
d="M0 0v1434h1024v-1434h-1024zM512 809l348 522h-696zM573 717l349 -522v1044zM164 102h696l-348 523zM102 1239v-1044l349 522z" />
    <glyph glyph-name=".null" horiz-adv-x="0" 
 />
    <glyph glyph-name="nonmarkingreturn" horiz-adv-x="682" 
 />
    <glyph glyph-name="space" unicode=" " horiz-adv-x="591" 
 />
    <glyph glyph-name="exclam" unicode="!" horiz-adv-x="665" 
d="M332 324q75 0 128.5 -53t53.5 -128t-53.5 -129.5t-128.5 -54.5t-128.5 54.5t-53.5 129.5t53.5 128t128.5 53zM186 444v1100h291v-1100h-291z" />
    <glyph glyph-name="quotedbl" unicode="&#x22;" horiz-adv-x="999" 
d="M180 1544h246l-37 -672h-172zM573 1544h246l-37 -672h-172z" />
    <glyph glyph-name="numbersign" unicode="#" 
d="M432 1487h217l-80 -416h207l80 416h215l-80 -416h164v-231h-201l-49 -254h193v-232h-242l-68 -354h-217l68 354h-207l-67 -354h-218l68 354h-186v232h231l49 254h-196v231h239zM526 840l-49 -254h209l53 254h-213z" />
    <glyph glyph-name="dollar" unicode="$" 
d="M549 -205v195q-159 19 -259.5 89.5t-178.5 213.5l182 176q49 -96 120.5 -157.5t166.5 -61.5q88 0 143 59.5t55 147.5q0 30 -7.5 55t-26 47t-34.5 37t-48.5 33.5t-52.5 28.5t-61.5 29t-60.5 28q-51 25 -86.5 45.5t-77 55.5t-67 73.5t-42.5 95.5t-17 125q0 171 93.5 288
t258.5 148v191h149v-193q104 -12 182.5 -53.5t143.5 -122.5l-137 -194q-43 57 -102.5 90.5t-125.5 33.5q-70 0 -122 -46t-52 -115q0 -30 13 -56.5t29.5 -44.5t50.5 -39t58.5 -33t71 -33.5t70.5 -33.5q50 -25 87.5 -48t78.5 -59.5t67 -77.5t43 -100.5t17 -130.5
q0 -179 -100 -313t-273 -168v-205h-149z" />
    <glyph glyph-name="percent" unicode="%" horiz-adv-x="1581" 
d="M377 1585q157 0 261.5 -103.5t104.5 -262.5q0 -158 -104 -261.5t-262 -103.5t-262.5 103.5t-104.5 261.5q0 159 104.5 262.5t262.5 103.5zM377 1419q-72 0 -118 -62t-46 -138t46 -137.5t118 -61.5t118 61.5t46 137.5t-46 138t-118 62zM1202 690q158 0 262.5 -103.5
t104.5 -262.5q0 -158 -104.5 -261.5t-262.5 -103.5t-262 103.5t-104 261.5q0 159 104.5 262.5t261.5 103.5zM1202 524q-72 0 -118 -62t-46 -138t46 -137.5t118 -61.5t118 61.5t46 137.5t-46 138t-118 62zM1133 1597l139 -69l-828 -1591l-141 71z" />
    <glyph glyph-name="ampersand" unicode="&#x26;" horiz-adv-x="1437" 
d="M784 362l-239 322q-39 -29 -63.5 -50t-53 -53t-43 -68.5t-14.5 -76.5q0 -76 55 -141.5t129 -65.5q33 0 64.5 10.5t64 35t49.5 39.5t51 48zM580 1112l73 -104l52 43q86 73 86 168q0 59 -32.5 105t-88.5 46q-59 0 -93 -42t-34 -101q0 -63 37 -115zM1087 0l-124 156
q-225 -197 -443 -197q-195 0 -323.5 128t-128.5 323q0 250 223 401l92 63q-125 174 -125 328q0 169 112.5 276t280.5 107q170 0 283 -105.5t113 -275.5q0 -206 -254 -373l215 -276l155 199l191 -179l-166 -223l266 -352h-367z" />
    <glyph glyph-name="quotesingle" unicode="'" horiz-adv-x="606" 
d="M180 1544h246l-37 -672h-172z" />
    <glyph glyph-name="parenleft" unicode="(" horiz-adv-x="555" 
d="M358 1704l177 -119q-168 -381 -168 -921q0 -242 41 -487t127 -433l-177 -121q-108 212 -157 491t-49 562q0 269 51 542.5t155 485.5z" />
    <glyph glyph-name="parenright" unicode=")" horiz-adv-x="555" 
d="M20 1585l177 119q104 -212 155 -485.5t51 -542.5q0 -283 -49 -562t-157 -491l-177 121q86 188 127 433t41 487q0 540 -168 921z" />
    <glyph glyph-name="asterisk" unicode="*" horiz-adv-x="854" 
d="M340 1544h176l-4 -207l158 107l73 -137l-165 -103l165 -102l-73 -137l-158 106l4 -203h-176l6 203l-160 -106l-73 137l161 102l-163 103l71 137l164 -107z" />
    <glyph glyph-name="plus" unicode="+" 
d="M471 1049h242v-404h403v-242h-403v-403h-242v403h-403v242h403v404z" />
    <glyph glyph-name="comma" unicode="," horiz-adv-x="591" 
d="M276 319l263 -28l-295 -617l-191 23z" />
    <glyph glyph-name="hyphen" unicode="-" horiz-adv-x="675" 
d="M88 774h500v-235h-500v235z" />
    <glyph glyph-name="period" unicode="." horiz-adv-x="591" 
d="M297 324q75 0 128.5 -53t53.5 -128t-53.5 -129.5t-128.5 -54.5t-128.5 54.5t-53.5 129.5t53.5 128t128.5 53z" />
    <glyph glyph-name="slash" unicode="/" horiz-adv-x="1103" 
d="M829 1737l199 -72l-754 -1997l-198 72z" />
    <glyph glyph-name="zero" unicode="0" 
d="M592 1585q119 0 216 -53.5t158 -137.5t103 -194t59 -217.5t17 -212.5q0 -86 -13 -175t-39 -181.5t-71 -173t-104 -144t-143 -100.5t-183 -37t-183 37t-143 100.5t-104 144t-71 173t-39 181.5t-13 175q0 105 17 212.5t59 217.5t103 194t158 137.5t216 53.5zM592 1323
q-61 0 -108.5 -42.5t-74.5 -105t-45 -141.5t-24 -142.5t-6 -117.5t6 -117.5t24 -143t45 -142.5t74.5 -106.5t108.5 -43.5t109 43.5t75 106.5t44.5 142.5t23.5 143t6 117.5q0 55 -6 118t-23.5 142t-44.5 141t-75 105t-109 43z" />
    <glyph glyph-name="one" unicode="1" 
d="M500 1282h-203v262h504v-1544h-301v1282z" />
    <glyph glyph-name="two" unicode="2" 
d="M592 262h506v-262h-1041l394 496q146 181 204 267q131 196 131 310q0 92 -54.5 171t-143.5 79q-64 0 -110 -42.5t-65 -101t-16 -120.5h-319q10 152 69 268.5t172 187t267 70.5q140 0 254.5 -65t180.5 -179.5t66 -253.5q0 -82 -20.5 -158.5t-62 -148t-82.5 -127
t-103 -127.5z" />
    <glyph glyph-name="three" unicode="3" 
d="M408 1141h-287q21 203 145.5 323.5t327.5 120.5q200 0 322 -118.5t122 -317.5q0 -97 -36.5 -184.5t-110.5 -137.5q98 -43 148.5 -150.5t50.5 -225.5q0 -224 -145 -358t-370 -134q-211 0 -355.5 139t-156.5 348h304q5 -96 64.5 -160.5t156.5 -64.5q96 0 151.5 75t55.5 173
q0 100 -60.5 176.5t-156.5 69.5l-56 -4v215h33q95 0 146 57t51 156q0 81 -48 138.5t-129 57.5q-75 0 -119.5 -58.5t-47.5 -135.5z" />
    <glyph glyph-name="four" unicode="4" 
d="M969 514h164v-242h-164v-272h-283v272h-680v136l688 1165h275v-1059zM686 514v614h-4l-326 -614h330z" />
    <glyph glyph-name="five" unicode="5" 
d="M1022 1282h-459l-53 -235l78 4q146 0 261 -74t175.5 -196t60.5 -267q0 -248 -156.5 -401.5t-404.5 -153.5q-277 0 -458 205l90 258q63 -90 154.5 -145.5t193.5 -55.5q122 0 199 90t77 215q0 127 -87 217.5t-214 90.5q-65 0 -132.5 -28t-115.5 -73h-47l166 811h672v-262z
" />
    <glyph glyph-name="six" unicode="6" 
d="M641 1608l221 -160l-317 -449l4 -4q53 21 121 21q137 0 243 -73t160.5 -188.5t54.5 -250.5q0 -238 -153 -391.5t-391 -153.5q-231 0 -386 147.5t-155 376.5q0 234 188 516zM582 205q108 0 175.5 88.5t67.5 198.5q0 112 -67.5 200t-175.5 88q-73 0 -130.5 -43.5
t-86.5 -108.5t-29 -136q0 -110 69 -198.5t177 -88.5z" />
    <glyph glyph-name="seven" unicode="7" 
d="M735 1282h-647v262h1104l-846 -1585l-248 141z" />
    <glyph glyph-name="eight" unicode="8" 
d="M592 682q-89 0 -143 -72.5t-54 -165.5q0 -91 54 -163t143 -72t142.5 71.5t53.5 163.5q0 93 -53.5 165.5t-142.5 72.5zM342 805q-94 47 -148.5 140t-54.5 200q0 195 129.5 317.5t323.5 122.5t323 -122.5t129 -317.5q0 -108 -54 -200.5t-148 -139.5q123 -46 186.5 -150.5
t63.5 -242.5q0 -135 -71 -240t-184.5 -159t-244.5 -54t-244.5 54t-184.5 159t-71 240q0 138 63.5 242.5t186.5 150.5zM592 1360q-80 0 -129 -66.5t-49 -148.5q0 -83 49 -150t129 -67t129 67t49 150q0 82 -49 148.5t-129 66.5z" />
    <glyph glyph-name="nine" unicode="9" 
d="M541 -66l-222 162l318 449l-4 4q-57 -23 -121 -23q-103 0 -190.5 42.5t-145.5 113.5t-90.5 163.5t-32.5 192.5q0 239 153.5 393t391.5 154q152 0 275 -66t194.5 -187t71.5 -273q0 -233 -189 -516zM600 1339q-108 0 -176 -88t-68 -200t68 -200.5t176 -88.5t177 89t69 200
q0 71 -29 136t-86.5 108.5t-130.5 43.5z" />
    <glyph glyph-name="colon" unicode=":" horiz-adv-x="591" 
d="M297 324q75 0 128.5 -53t53.5 -128t-53.5 -129.5t-128.5 -54.5t-128.5 54.5t-53.5 129.5t53.5 128t128.5 53zM297 1061q75 0 128.5 -52.5t53.5 -127.5t-53.5 -130t-128.5 -55t-128.5 55t-53.5 130t53.5 127.5t128.5 52.5z" />
    <glyph glyph-name="semicolon" unicode=";" horiz-adv-x="591" 
d="M256 319l262 -28l-295 -617l-190 23zM379 1061q75 0 128.5 -52.5t53.5 -127.5t-53.5 -130t-128.5 -55t-128.5 55t-53.5 130t53.5 127.5t128.5 52.5z" />
    <glyph glyph-name="less" unicode="&#x3c;" 
d="M68 401v246l1048 373v-258l-665 -236v-4l665 -235v-258z" />
    <glyph glyph-name="equal" unicode="=" 
d="M68 645v242h1048v-242h-1048zM68 162v241h1048v-241h-1048z" />
    <glyph glyph-name="greater" unicode="&#x3e;" 
d="M1116 647v-246l-1048 -372v258l665 235v4l-665 236v258z" />
    <glyph glyph-name="question" unicode="?" horiz-adv-x="997" 
d="M303 526v408q33 -8 74 -8q108 0 185 61.5t77 167.5q0 69 -37.5 124.5t-103.5 55.5q-65 0 -101.5 -50.5t-36.5 -117.5v-24h-299q-4 91 28.5 173.5t91.5 141t141 93t174 34.5q189 0 314.5 -125.5t125.5 -314.5q0 -152 -91.5 -270t-238.5 -152l-16 -197h-287zM451 324
q75 0 128.5 -53t53.5 -128t-53.5 -129.5t-128.5 -54.5t-129 54.5t-54 129.5t54 128t129 53z" />
    <glyph glyph-name="at" unicode="@" horiz-adv-x="1996" 
d="M1208 762q15 122 -42 185t-167 63q-118 0 -186 -89.5t-68 -211.5q0 -97 49 -159.5t140 -62.5q128 0 193.5 75.5t80.5 199.5zM1260 1038l28 129h146l-103 -532l-3 -15q-7 -36 -10 -56t-3.5 -48.5t11 -42.5t34.5 -14q47 0 95.5 55t81 149t32.5 193q0 255 -151 404t-390 149
q-127 0 -238.5 -49.5t-191 -134.5t-125 -203t-45.5 -250q0 -185 89 -332t236 -226t322 -79q247 0 369 88l153 -123q-129 -71 -248 -106t-302 -35q-163 0 -309.5 61.5t-253.5 168.5t-169.5 259t-62.5 324q0 227 104 414t283.5 293t394.5 106q288 0 482 -180
q229 -199 229 -475q0 -130 -33 -244.5t-94 -193.5q-70 -94 -153.5 -139t-161.5 -42q-43 2 -72.5 35.5t-38.5 91.5q-127 -127 -279 -127q-137 0 -240.5 112.5t-103.5 270.5q0 126 50.5 237.5t148 183t219.5 71.5q162 0 273 -148z" />
    <glyph glyph-name="A" unicode="A" horiz-adv-x="1384" 
d="M963 326h-537l-127 -326h-317l602 1585h233l586 -1585h-322zM879 571l-193 562h-4l-170 -562h367z" />
    <glyph glyph-name="B" unicode="B" horiz-adv-x="1132" 
d="M412 672v-430h63q56 0 94.5 3.5t80.5 16.5t67.5 36t42 65t16.5 100q0 42 -10 75t-25.5 54.5t-41.5 37t-49.5 23.5t-60 12.5t-62.5 5.5t-66 1h-49zM111 0v1544h374q225 0 344 -99t119 -321q0 -91 -33.5 -173.5t-101.5 -125.5q87 -16 148.5 -77.5t88.5 -141t27 -168.5
q0 -111 -37 -196t-104.5 -137t-156 -78.5t-195.5 -26.5h-473zM412 1303v-402h37q116 0 167.5 43.5t51.5 159.5q0 111 -56 155t-161 44h-39z" />
    <glyph glyph-name="C" unicode="C" horiz-adv-x="1230" 
d="M1143 1495v-360q-63 77 -153 120t-187 43q-105 0 -192.5 -45.5t-144 -121t-87.5 -170t-31 -195.5q0 -132 53.5 -249.5t159 -194t240.5 -76.5q94 0 185.5 45t156.5 119v-359q-196 -92 -350 -92q-159 0 -300.5 65.5t-241 175t-157 256t-57.5 304.5q0 163 56 313.5
t154.5 263.5t242 180.5t309.5 67.5q180 0 344 -90z" />
    <glyph glyph-name="D" unicode="D" horiz-adv-x="1323" 
d="M111 0v1544h430q219 0 389.5 -101.5t263 -277.5t92.5 -395q0 -161 -55.5 -303t-152.5 -245t-237 -162.5t-302 -59.5h-428zM412 1282v-1020h49q136 0 236 36.5t160.5 105t89 160t28.5 208.5q0 253 -129 381.5t-385 128.5h-49z" />
    <glyph glyph-name="E" unicode="E" horiz-adv-x="999" 
d="M909 1282h-497v-340h479v-262h-479v-418h497v-262h-798v1544h798v-262z" />
    <glyph glyph-name="F" unicode="F" horiz-adv-x="948" 
d="M877 1282h-465v-340h436v-262h-436v-680h-301v1544h766v-262z" />
    <glyph glyph-name="G" unicode="G" horiz-adv-x="1513" 
d="M809 821h666v-39q0 -133 -26.5 -253t-83.5 -224.5t-138.5 -181t-198 -120.5t-256.5 -44q-132 0 -249 43t-205 119t-152 177t-96.5 221t-32.5 247q0 131 33.5 253.5t99.5 225t156 179t210 119t255 42.5q198 0 360 -96.5t250 -271.5l-266 -144q-48 108 -142.5 177
t-210.5 69q-84 0 -156.5 -33t-122.5 -88t-85.5 -127t-52.5 -149.5t-17 -155.5t17 -154.5t53 -146.5t86.5 -123.5t123 -85t156.5 -31.5q140 0 244 104.5t109 245.5h-328v246z" />
    <glyph glyph-name="H" unicode="H" horiz-adv-x="1380" 
d="M412 936h557v608h301v-1544h-301v690h-557v-690h-301v1544h301v-608z" />
    <glyph glyph-name="I" unicode="I" horiz-adv-x="520" 
d="M412 1544v-1544h-301v1544h301z" />
    <glyph glyph-name="J" unicode="J" horiz-adv-x="796" 
d="M694 1544v-1020q0 -133 -16 -219.5t-74 -171.5q-59 -86 -149 -130t-197 -44q-81 0 -162 40.5t-141 104.5l192 222q11 -36 46.5 -68.5t70.5 -32.5q24 0 43 8t32.5 25t23.5 35t15.5 46t9 48.5t4.5 53t1.5 49.5t0 47t-0.5 38v969h301z" />
    <glyph glyph-name="K" unicode="K" horiz-adv-x="1269" 
d="M416 893l477 651h371l-586 -713l618 -831h-387l-493 694h-4v-694h-301v1544h301v-651h4z" />
    <glyph glyph-name="L" unicode="L" horiz-adv-x="823" 
d="M412 1544v-1282h426v-262h-727v1544h301z" />
    <glyph glyph-name="M" unicode="M" horiz-adv-x="1712" 
d="M1386 0l-122 958h-4l-351 -978h-104l-338 978h-4l-137 -958h-303l260 1585h213l381 -1018l364 1018h217l232 -1585h-304z" />
    <glyph glyph-name="N" unicode="N" horiz-adv-x="1554" 
d="M111 0v1585h217l813 -1079h4v1038h301v-1575h-217l-813 1080h-4v-1049h-301z" />
    <glyph glyph-name="O" unicode="O" horiz-adv-x="1601" 
d="M1565 774q0 -170 -54 -319t-151 -259t-241.5 -173.5t-317.5 -63.5t-317.5 63.5t-241.5 173.5t-151 259t-54 319q0 229 94 413t269 291t401 107t401 -107t269 -291t94 -413zM1253 786q0 95 -31 184t-87.5 160.5t-143.5 114.5t-190 43q-83 0 -156 -28t-126.5 -76.5
t-92.5 -112.5t-58.5 -137t-19.5 -148t14.5 -147t49 -142t85.5 -123t129.5 -85.5t174.5 -32.5t174.5 32.5t129 85.5t85 123t49 142t14.5 147z" />
    <glyph glyph-name="P" unicode="P" horiz-adv-x="1081" 
d="M412 578v-578h-301v1544h409q535 0 535 -479q0 -243 -127 -365t-367 -122h-149zM412 1294v-467h61q72 0 119 9.5t84.5 35t54.5 73.5t17 122q0 72 -19.5 119t-60.5 69.5t-87 30.5t-116 8h-53z" />
    <glyph glyph-name="Q" unicode="Q" horiz-adv-x="1601" 
d="M1593 -35l-303 -31l-106 129q-155 -104 -383 -104q-165 0 -309 65.5t-243 176t-155.5 260t-56.5 313.5q0 107 25.5 210t72 192.5t115.5 165t152.5 129.5t185.5 84t213 30t213 -30t185.5 -84t152.5 -129.5t115.5 -165t72 -192.5t25.5 -210q0 -322 -183 -559zM1020 618
l137 -155q48 59 72 146t24 173q0 127 -55.5 244t-161 194.5t-235.5 77.5q-85 0 -159 -31t-127 -83.5t-91.5 -122t-57 -147t-18.5 -158.5q0 -97 30 -187t85.5 -161.5t143 -114.5t194.5 -43q40 0 85 15t77 36l-254 293z" />
    <glyph glyph-name="R" unicode="R" horiz-adv-x="1142" 
d="M719 651l436 -651h-364l-375 623h-4v-623h-301v1544h407q117 0 210 -26.5t162 -81.5t106.5 -145.5t37.5 -211.5q0 -101 -34.5 -190.5t-107.5 -155t-173 -82.5zM412 1298v-464h39q136 0 209 52.5t73 184.5q0 69 -20.5 115.5t-60.5 70t-87 32.5t-112 9h-41z" />
    <glyph glyph-name="S" unicode="S" horiz-adv-x="1077" 
d="M979 1413l-141 -209q-93 127 -232 127q-74 0 -131 -50.5t-57 -123.5q0 -52 34 -91t87.5 -65.5t119 -52.5t131 -62.5t119 -84t87.5 -128.5t34 -186q0 -235 -137.5 -381.5t-370.5 -146.5q-296 0 -475 301l195 191q32 -94 108.5 -160t169.5 -66q89 0 144 65.5t55 158.5
q0 43 -15.5 78.5t-35 57.5t-58.5 44.5t-62.5 32.5t-70.5 28q-18 7 -26 10q-82 34 -139 68t-107 83t-74.5 116.5t-24.5 154.5q0 194 129 328.5t322 134.5q107 0 230.5 -48.5t191.5 -123.5z" />
    <glyph glyph-name="T" unicode="T" horiz-adv-x="923" 
d="M612 1282v-1282h-301v1282h-311v262h924v-262h-312z" />
    <glyph glyph-name="U" unicode="U" horiz-adv-x="1351" 
d="M102 621v923h301v-864q0 -48 1.5 -85.5t8 -88t17.5 -87.5t31.5 -76.5t48.5 -64.5t70.5 -41t95.5 -16t95.5 16t70.5 41t48.5 64.5t31.5 76.5t17 87.5t7.5 87.5t1.5 86v864h301v-923q0 -116 -19.5 -214t-63 -181.5t-109.5 -142t-162.5 -91.5t-218.5 -33t-218.5 33
t-162.5 91.5t-110 142t-63.5 181.5t-19.5 214z" />
    <glyph glyph-name="V" unicode="V" horiz-adv-x="1308" 
d="M295 1544l371 -1040h4l344 1040h323l-600 -1585h-176l-590 1585h324z" />
    <glyph glyph-name="W" unicode="W" horiz-adv-x="2000" 
d="M287 1544l311 -1052h4l307 1073h178l320 -1073h4l303 1052h316l-523 -1575h-221l-307 1010h-4l-291 -1010h-221l-492 1575h316z" />
    <glyph glyph-name="X" unicode="X" horiz-adv-x="1275" 
d="M477 817l-416 727h357l246 -479l225 479h356l-428 -727l475 -817h-350l-311 565l-295 -565h-352z" />
    <glyph glyph-name="Y" unicode="Y" horiz-adv-x="1202" 
d="M446 709l-479 835h350l271 -536l295 536h352l-487 -835v-709h-302v709z" />
    <glyph glyph-name="Z" unicode="Z" horiz-adv-x="1177" 
d="M489 262h641v-262h-1120l680 1282h-575v262h1052z" />
    <glyph glyph-name="bracketleft" unicode="[" horiz-adv-x="589" 
d="M309 1544v-1544h189v-186h-406v1917h406v-187h-189z" />
    <glyph glyph-name="backslash" unicode="\" horiz-adv-x="1103" 
d="M61 1737h230l753 -1737h-229z" />
    <glyph glyph-name="bracketright" unicode="]" horiz-adv-x="589" 
d="M281 0v1544h-189v187h406v-1917h-406v186h189z" />
    <glyph glyph-name="asciicircum" unicode="^" 
d="M68 674l395 870h254l399 -870h-264l-260 579l-260 -579h-264z" />
    <glyph glyph-name="underscore" unicode="_" horiz-adv-x="1024" 
d="M1024 -154v-102h-1024v102h1024z" />
    <glyph glyph-name="grave" unicode="`" horiz-adv-x="778" 
d="M162 1458l209 127l245 -344l-145 -90z" />
    <glyph glyph-name="a" unicode="a" horiz-adv-x="1157" 
d="M1053 1006v-1006h-283v92h-4q-45 -59 -118.5 -92t-153.5 -33q-107 0 -196 46t-146.5 122.5t-89 173t-31.5 199.5q0 136 53 255t159.5 197t245.5 78q79 0 154 -33t127 -94v95h283zM559 221q105 0 172.5 87.5t67.5 195.5t-67.5 194t-172.5 86t-171 -86t-66 -194
q0 -69 28 -133t83.5 -107t125.5 -43z" />
    <glyph glyph-name="b" unicode="b" horiz-adv-x="1157" 
d="M102 0v1737h287v-824q49 58 124 91.5t155 33.5q103 0 191 -45.5t145.5 -120.5t89.5 -169.5t32 -194.5q0 -104 -31.5 -200.5t-88.5 -172.5t-146.5 -122t-197.5 -46q-79 0 -153 33.5t-116 93.5h-4v-94h-287zM598 221q105 0 171.5 87.5t66.5 195.5t-66.5 194t-171.5 86
t-171.5 -86t-66.5 -194t66.5 -195.5t171.5 -87.5z" />
    <glyph glyph-name="c" unicode="c" horiz-adv-x="862" 
d="M786 975v-277q-99 99 -211 99q-115 0 -184 -90.5t-69 -208.5q0 -122 72 -205.5t192 -83.5q114 0 200 96v-276q-112 -62 -247 -62q-145 0 -262.5 73t-181.5 194.5t-64 265.5q0 148 66.5 271t187 195t268.5 72q130 0 233 -63z" />
    <glyph glyph-name="d" unicode="d" horiz-adv-x="1157" 
d="M768 0v94h-4q-43 -60 -116.5 -93.5t-153.5 -33.5q-107 0 -196 46t-146.5 122.5t-89 173t-31.5 199.5q0 136 53 255t159.5 197t245.5 78q80 0 154.5 -33t120.5 -92h4v824h287v-1737h-287zM559 221q105 0 171.5 87.5t66.5 195.5t-66.5 194t-171.5 86t-171 -86t-66 -194
q0 -69 28 -133t83.5 -107t125.5 -43z" />
    <glyph glyph-name="e" unicode="e" horiz-adv-x="1026" 
d="M995 457h-661q0 -51 10.5 -96.5t32 -86t61.5 -64.5t94 -24q126 0 193 138l264 -43q-52 -149 -174.5 -231.5t-282.5 -82.5q-115 0 -209.5 39.5t-158 109.5t-98.5 167t-35 211q0 116 31 214t90 172t153 116t213 42q120 0 213 -42.5t150 -117.5t85.5 -172.5t28.5 -213.5v-35
zM342 635h383q-11 84 -61.5 143.5t-128.5 59.5q-81 0 -131.5 -59t-61.5 -144z" />
    <glyph glyph-name="f" unicode="f" horiz-adv-x="620" 
d="M399 764v-764h-286v764h-97v242h97v294q0 96 21 176.5t64.5 145.5t118.5 102t175 37q77 0 137 -32v-256q-70 34 -117 34q-21 0 -37.5 -5t-28 -17t-20 -23t-13.5 -31.5t-8.5 -33.5t-4.5 -37t-1.5 -35t0 -35.5t0.5 -29.5v-254h230v-242h-230z" />
    <glyph glyph-name="g" unicode="g" horiz-adv-x="1150" 
d="M1049 1006v-945q0 -598 -488 -598q-126 0 -237.5 47.5t-187.5 144.5t-83 226h303q11 -80 64.5 -128t134.5 -48q42 0 75 11t54.5 27t37 44.5t23 53t12 63.5t5 64.5t0.5 66.5v65h-4q-45 -61 -120 -97t-155 -36q-107 0 -194.5 44.5t-142.5 119t-85 168.5t-30 197
q0 83 19.5 162t59 148t94.5 120.5t131 81.5t163 30q75 0 146 -35.5t114 -93.5h4v97h287zM559 221q105 0 171.5 86.5t66.5 194.5t-66.5 195t-171.5 87t-171 -87t-66 -195t66 -194.5t171 -86.5z" />
    <glyph glyph-name="h" unicode="h" horiz-adv-x="1105" 
d="M102 1737h287v-815h4q42 59 111.5 87.5t150.5 28.5q349 0 349 -424v-614h-287v532q0 123 -13 170q-29 107 -143 107q-35 0 -63 -11.5t-45.5 -28t-30.5 -45.5t-19 -52.5t-9.5 -60t-4 -57.5t-0.5 -56v-498h-287v1737z" />
    <glyph glyph-name="i" unicode="i" horiz-adv-x="518" 
d="M403 1006v-1006h-286v1006h286zM260 1597q70 0 120 -50.5t50 -119.5q0 -71 -50 -120.5t-120 -49.5t-120 49.5t-50 120.5q0 69 50 119.5t120 50.5z" />
    <glyph glyph-name="j" unicode="j" horiz-adv-x="518" 
d="M403 1006v-1543h-286v1543h286zM260 1597q70 0 120 -50.5t50 -119.5q0 -71 -50 -120.5t-120 -49.5t-120 49.5t-50 120.5q0 69 50 119.5t120 50.5z" />
    <glyph glyph-name="k" unicode="k" horiz-adv-x="1077" 
d="M389 1737v-1100h4l301 369h373l-424 -443l457 -563h-377l-330 428h-4v-428h-287v1737h287z" />
    <glyph glyph-name="l" unicode="l" horiz-adv-x="489" 
d="M389 1737v-1737h-287v1737h287z" />
    <glyph glyph-name="m" unicode="m" horiz-adv-x="1642" 
d="M389 1006v-91h4q40 58 107.5 90.5t138.5 32.5q191 0 289 -157q45 73 124.5 115t168.5 42q92 0 157 -32.5t99 -92t48.5 -129t14.5 -157.5v-627h-287v528q0 128 -16 182q-29 99 -119 99q-32 0 -57.5 -13t-41 -30t-27 -49t-16.5 -54.5t-8 -62t-3 -55.5v-51v-494h-287v510
q0 119 -7 161q-23 138 -130 138q-32 0 -56.5 -12t-40.5 -28t-27 -45t-16.5 -50.5t-8.5 -58.5t-3 -54.5v-51.5v-15v-494h-287v1006h287z" />
    <glyph glyph-name="n" unicode="n" horiz-adv-x="1105" 
d="M389 1006v-93h4q82 125 262 125q349 0 349 -424v-614h-287v532q0 123 -13 170q-29 107 -143 107q-35 0 -63 -11.5t-45.5 -28t-30.5 -45.5t-19 -52.5t-9.5 -60t-4 -57.5t-0.5 -56v-498h-287v1006h287z" />
    <glyph glyph-name="o" unicode="o" horiz-adv-x="1122" 
d="M561 1038q234 0 381.5 -150.5t147.5 -385.5t-147 -385t-382 -150t-381.5 150t-146.5 385q0 236 147 386t381 150zM561 784q-105 0 -171 -85.5t-66 -196.5q0 -108 66 -194.5t171 -86.5t171.5 86.5t66.5 194.5q0 111 -66.5 196.5t-171.5 85.5z" />
    <glyph glyph-name="p" unicode="p" horiz-adv-x="1157" 
d="M389 1006v-93q49 58 124 91.5t155 33.5q103 0 191 -45.5t145.5 -120.5t89.5 -169.5t32 -194.5q0 -104 -31.5 -200.5t-88.5 -172.5t-146.5 -122t-197.5 -46q-79 0 -153 33.5t-116 93.5h-4v-631h-287v1543h287zM598 221q105 0 171.5 87.5t66.5 195.5t-66.5 194t-171.5 86
t-171.5 -86t-66.5 -194t66.5 -195.5t171.5 -87.5z" />
    <glyph glyph-name="q" unicode="q" horiz-adv-x="1157" 
d="M559 221q105 0 171.5 87.5t66.5 195.5t-66.5 194t-171.5 86t-171 -86t-66 -194q0 -69 28 -133t83.5 -107t125.5 -43zM1055 1006v-1543h-287v631h-4q-43 -60 -116.5 -93.5t-153.5 -33.5q-107 0 -196 46t-146.5 122.5t-89 173t-31.5 199.5q0 136 53 255t159.5 197t245.5 78
q80 0 154.5 -33t120.5 -92h4v93h287z" />
    <glyph glyph-name="r" unicode="r" horiz-adv-x="751" 
d="M389 1006v-105h4q89 137 250 137q56 0 119 -24l-35 -266q-50 36 -119 36q-57 0 -99 -20.5t-64.5 -50.5t-35.5 -77t-16.5 -88t-3.5 -95v-453h-287v1006h287z" />
    <glyph glyph-name="s" unicode="s" horiz-adv-x="839" 
d="M741 934l-123 -166q-74 70 -151 70q-36 0 -65 -25t-29 -61q0 -21 10.5 -38t34 -31t44 -23t59 -24t59.5 -24q44 -19 77 -40.5t64.5 -54.5t48 -82t16.5 -111q0 -162 -113.5 -259.5t-277.5 -97.5q-101 0 -194.5 44.5t-159.5 123.5l131 170q105 -117 213 -117q48 0 81.5 30.5
t33.5 78.5q0 21 -8.5 39t-20.5 30t-35 24.5t-40 19.5t-48.5 19.5t-48.5 19.5q-44 19 -74.5 37.5t-62.5 49t-48 75t-16 102.5q0 142 90 233.5t230 91.5q86 0 175.5 -26.5t147.5 -77.5z" />
    <glyph glyph-name="t" unicode="t" horiz-adv-x="561" 
d="M424 764v-764h-287v764h-98v242h98v340h287v-340h176v-242h-176z" />
    <glyph glyph-name="u" unicode="u" horiz-adv-x="1095" 
d="M96 1006h287v-545q0 -39 3 -70.5t13 -67t27.5 -59.5t48 -39.5t72.5 -15.5t72.5 15.5t48 39.5t27.5 59.5t13 67t3 70.5v545h286v-592q0 -220 -113.5 -333.5t-336.5 -113.5q-224 0 -337.5 113.5t-113.5 333.5v592z" />
    <glyph glyph-name="v" unicode="v" horiz-adv-x="999" 
d="M279 1006l235 -568l207 568h313l-463 -1026h-147l-461 1026h316z" />
    <glyph glyph-name="w" unicode="w" horiz-adv-x="1603" 
d="M276 1006l209 -580l246 612h137l248 -620l213 588h311l-466 -1026h-146l-215 612l-240 -612h-147l-463 1026h313z" />
    <glyph glyph-name="x" unicode="x" horiz-adv-x="1124" 
d="M393 547l-346 459h348l187 -261l159 261h353l-357 -459l424 -547h-352l-258 350l-232 -350h-356z" />
    <glyph glyph-name="y" unicode="y" horiz-adv-x="1064" 
d="M391 154l-428 852h326l239 -572l258 572h320l-731 -1543h-316z" />
    <glyph glyph-name="z" unicode="z" horiz-adv-x="985" 
d="M475 242h477v-242h-954l514 764h-434v242h907z" />
    <glyph glyph-name="braceleft" unicode="{" horiz-adv-x="796" 
d="M139 614v150q154 68 154 309v373q0 112 60 191t114 79h188v-186h-82q-18 0 -30.5 -7.5t-19 -17t-9.5 -29.5t-3.5 -33t-0.5 -40v-363q0 -82 -19.5 -150t-49.5 -109.5t-50 -61t-37 -31.5q16 -10 36.5 -30t50.5 -60.5t49.5 -109t19.5 -150.5v-363q0 -27 0.5 -40t3.5 -33
t9.5 -29.5t19 -17t30.5 -7.5h82v-186h-188q-54 0 -114 79t-60 191v373q0 241 -154 309z" />
    <glyph glyph-name="bar" unicode="|" horiz-adv-x="1101" 
d="M672 1610v-2048h-242v2048h242z" />
    <glyph glyph-name="braceright" unicode="}" horiz-adv-x="796" 
d="M657 764v-150q-153 -68 -153 -309v-373q0 -112 -60 -191t-114 -79h-189v186h82q18 0 30.5 7.5t19 17t10 29t4 33.5t0.5 40v363q0 82 19.5 150.5t49 109t50 61t36.5 29.5q-13 8 -27 20.5t-38.5 43.5t-43 67.5t-32.5 95t-14 125.5v363q0 26 -0.5 40t-4 33.5t-10 29t-19 17
t-30.5 7.5h-82v186h189q54 0 114 -79t60 -191v-373q0 -241 153 -309z" />
    <glyph glyph-name="asciitilde" unicode="~" 
d="M913 743l203 -184q-20 -36 -29.5 -52.5t-33.5 -53.5t-40 -57t-43 -48.5t-50.5 -43.5t-54 -26.5t-60.5 -11.5q-21 0 -43.5 4.5t-37.5 9.5t-39 17.5t-33 17.5t-35.5 21.5t-30.5 19.5q-21 13 -70 47t-77.5 48t-53.5 14q-48 0 -115 -158l-202 180q16 21 46.5 67.5t56 81
t58.5 71t72 57t80 20.5q96 0 229 -104q45 -39 99.5 -67.5t93.5 -28.5q22 0 46 31t38 62.5t26 65.5z" />
    <glyph glyph-name="uni00A0" unicode="&#xa0;" horiz-adv-x="591" 
 />
    <glyph glyph-name="exclamdown" unicode="&#xa1;" horiz-adv-x="665" 
d="M332 1053q75 0 128.5 -53t53.5 -128t-53.5 -129.5t-128.5 -54.5t-128.5 54.5t-53.5 129.5t53.5 128t128.5 53zM186 -541v1100h291v-1100h-291z" />
    <glyph glyph-name="cent" unicode="&#xa2;" 
d="M797 1483v-178q114 -20 170 -52v-288q-48 54 -94.5 78t-112.5 24q-116 0 -185 -88.5t-69 -208.5q0 -118 70 -201.5t186 -83.5q60 0 114.5 28t86.5 75h4v-289q-76 -41 -170 -51v-191h-150v187q-99 8 -182 56.5t-136.5 122.5t-83.5 165t-30 188q0 208 115.5 358t316.5 177
v172h150z" />
    <glyph glyph-name="sterling" unicode="&#xa3;" 
d="M244 0l-224 39q18 57 43 105.5t61 93t86 71.5t109 29q23 64 23 121q0 90 -45 172h-268v135h190q-36 72 -60 157t-24 156q0 222 148 364t370 142q464 0 488 -528l-301 -35l4 70q5 88 -53.5 164.5t-145.5 76.5q-101 0 -157 -79t-56 -183q0 -69 22.5 -136t63.5 -149l10 -20
h279v-135h-229q11 -70 8 -160q-1 -26 -4 -78.5t-4 -77.5l137 -55q81 -33 129 -33q78 0 112 121l213 -45q-17 -68 -40 -121t-59 -100t-91 -72.5t-125 -25.5q-88 0 -244 59q-152 59 -229 59q-50 0 -86 -27t-51 -75z" />
    <glyph glyph-name="currency" unicode="&#xa4;" 
d="M592 1126q178 0 289 -90l127 117l151 -152l-123 -112q78 -118 78 -275q0 -156 -78 -274l123 -113l-151 -151l-127 117q-112 -91 -289 -91t-289 91l-127 -117l-151 151l122 113q-77 116 -77 274q0 159 77 275l-122 112l151 152l127 -117q111 90 289 90zM592 299
q137 0 231.5 91.5t94.5 223.5q0 139 -92 227.5t-234 88.5t-234 -88.5t-92 -227.5q0 -132 94 -223.5t232 -91.5z" />
    <glyph glyph-name="yen" unicode="&#xa5;" 
d="M590 1008l284 536h351l-357 -624h275v-136h-359l-43 -75v-74h402v-135h-402v-500h-301v500h-401v135h401v74l-49 75h-352v136h274l-356 624h350z" />
    <glyph glyph-name="brokenbar" unicode="&#xa6;" horiz-adv-x="1101" 
d="M672 330v-512h-242v512h242zM672 1354v-512h-242v512h242z" />
    <glyph glyph-name="section" unicode="&#xa7;" horiz-adv-x="1181" 
d="M483 700l285 -174q35 29 55.5 72.5t20.5 87.5q0 41 -18.5 72.5t-41 48.5t-61.5 41q-9 5 -14 8l-289 178q-36 -27 -59 -69.5t-23 -85.5q0 -15 2.5 -29t5 -24.5t10 -22t11.5 -18.5t15.5 -17t16 -14.5t20 -14.5t20 -12.5t22.5 -13.5t22 -13zM987 1401h-256
q-8 64 -49.5 106.5t-106.5 42.5q-57 0 -91.5 -45.5t-34.5 -105.5q0 -30 11 -56.5t23.5 -43.5t40.5 -37.5t42.5 -29t49.5 -28.5l220 -123q67 -37 106.5 -64.5t80 -69t59 -94t18.5 -120.5q0 -90 -39 -177.5t-105 -149.5q40 -47 61 -116t21 -136q0 -185 -126 -304.5
t-328 -119.5q-139 0 -249.5 56t-174 165t-56.5 252h283q-2 -94 53.5 -168t147.5 -74q73 0 119.5 54t46.5 128q0 31 -11.5 58t-24 43.5t-42 38t-43.5 29.5t-51 28l-273 147q-115 63 -171 136.5t-56 193.5q0 186 151 334q-67 98 -67 229q0 170 118 275.5t291 105.5
q111 0 201.5 -41.5t148 -124.5t62.5 -194z" />
    <glyph glyph-name="dieresis" unicode="&#xa8;" horiz-adv-x="819" 
d="M195 1561q67 0 115 -48t48 -116t-48 -116t-115 -48t-115.5 48.5t-48.5 115.5t48.5 115.5t115.5 48.5zM627 1561q67 0 115.5 -48.5t48.5 -115.5t-48.5 -115.5t-115.5 -48.5t-115.5 48.5t-48.5 115.5t48.5 115.5t115.5 48.5z" />
    <glyph glyph-name="copyright" unicode="&#xa9;" horiz-adv-x="1638" 
d="M819 -41q-166 0 -316 64t-257.5 172.5t-170.5 259t-63 317.5t63 317.5t170.5 259t257.5 172.5t316 64t316 -64t257.5 -172.5t170.5 -259t63 -317.5t-63 -317.5t-170.5 -259t-257.5 -172.5t-316 -64zM819 1409q-172 0 -316.5 -82.5t-229.5 -229t-85 -325.5
q0 -178 85 -324.5t229.5 -229.5t316.5 -83t316.5 83t229.5 229.5t85 324.5q0 179 -85 325.5t-229.5 229t-316.5 82.5zM1233 940h-180q-18 77 -85.5 117.5t-148.5 40.5q-121 0 -200.5 -97t-79.5 -223t79.5 -222.5t200.5 -96.5q81 0 148.5 40t85.5 117h180
q-28 -149 -138.5 -241t-275.5 -92q-129 0 -234.5 67.5t-164 181t-58.5 246.5t58.5 246.5t164 181.5t234.5 68q165 0 275 -92.5t139 -241.5z" />
    <glyph glyph-name="ordfeminine" unicode="&#xaa;" horiz-adv-x="694" 
d="M680 1565v-602h-182v55h-4q-29 -36 -77 -56t-100 -20q-92 0 -162.5 48t-104.5 120.5t-34 155.5q0 127 82 223t217 96q52 0 101 -20t82 -56v56h182zM360 1094q68 0 112 53t44 117q0 66 -43.5 118t-112.5 52t-112 -52t-43 -118q0 -65 43.5 -117.5t111.5 -52.5z" />
    <glyph glyph-name="guillemotleft" unicode="&#xab;" horiz-adv-x="1052" 
d="M694 655l256 -372l-178 -119l-326 491l326 498l176 -115zM285 655l256 -372l-179 -119l-325 491l325 498l177 -115z" />
    <glyph glyph-name="logicalnot" unicode="&#xac;" 
d="M874 291v354h-806v242h1048v-596h-242z" />
    <glyph glyph-name="uni00AD" unicode="&#xad;" horiz-adv-x="675" 
d="M88 774h500v-235h-500v235z" />
    <glyph glyph-name="registered" unicode="&#xae;" horiz-adv-x="1638" 
d="M819 -41q-166 0 -316 64t-257.5 172.5t-170.5 259t-63 317.5t63 317.5t170.5 259t257.5 172.5t316 64t316 -64t257.5 -172.5t170.5 -259t63 -317.5t-63 -317.5t-170.5 -259t-257.5 -172.5t-316 -64zM819 1409q-172 0 -316.5 -82.5t-229.5 -229t-85 -325.5
q0 -178 85 -324.5t229.5 -229.5t316.5 -83t316.5 83t229.5 229.5t85 324.5q0 179 -85 325.5t-229.5 229t-316.5 82.5zM989 690l205 -336h-193l-196 336h-148v-336h-176v844h410q64 0 109.5 -5.5t89.5 -21.5t70.5 -44t42.5 -75t16 -112q0 -116 -58.5 -179t-171.5 -71z
M657 842h238q77 0 114.5 23.5t37.5 88.5q0 22 -8 38.5t-25 26.5t-33 16t-42.5 8.5t-43 3t-43.5 0.5h-195v-205z" />
    <glyph glyph-name="macron" unicode="&#xaf;" horiz-adv-x="819" 
d="M18 1544h783v-180h-783v180z" />
    <glyph glyph-name="degree" unicode="&#xb0;" horiz-adv-x="819" 
d="M717 1278q0 -127 -90.5 -217t-216.5 -90q-128 0 -218 90t-90 217q-1 126 89.5 216.5t218.5 90.5q126 0 216.5 -90.5t90.5 -216.5zM408 1446q-69 0 -118 -49.5t-48 -118.5q2 -71 51 -119.5t119 -48.5q69 0 117.5 49t48.5 119q0 69 -50 118.5t-120 49.5z" />
    <glyph glyph-name="plusminus" unicode="&#xb1;" 
d="M68 0v242h1048v-242h-1048zM471 1290h242v-352h403v-242h-403v-352h-242v352h-403v242h403v352z" />
    <glyph glyph-name="twosuperior" unicode="&#xb2;" horiz-adv-x="708" 
d="M365 776h327v-158h-676l256 297q4 5 25.5 29.5t30.5 36t30.5 37.5t33 42t29.5 41t28 43.5t20.5 40.5t15 41t4.5 36q0 67 -34 109t-95 42t-93 -50t-29 -110h-207q9 140 94.5 228t234.5 88q137 0 231.5 -85.5t94.5 -211.5q0 -93 -45 -171t-129 -167z" />
    <glyph glyph-name="threesuperior" unicode="&#xb3;" horiz-adv-x="708" 
d="M246 1319h-187q12 122 93.5 194t214.5 72q130 0 209 -70.5t79 -189.5q0 -58 -24 -111.5t-72 -83.5q64 -26 96.5 -90t32.5 -135q0 -134 -93.5 -214.5t-240.5 -80.5q-137 0 -230 83.5t-101 209.5h196q3 -58 42 -96.5t101 -38.5t99 44.5t37 102.5q0 60 -39.5 106t-102.5 42
l-37 -2v129h23q61 0 94 35t33 94q0 48 -31 82.5t-84 34.5q-49 0 -77.5 -35t-30.5 -82z" />
    <glyph glyph-name="acute" unicode="&#xb4;" horiz-adv-x="778" 
d="M408 1585l208 -127l-309 -307l-145 90z" />
    <glyph glyph-name="mu" unicode="&#xb5;" horiz-adv-x="1095" 
d="M96 1006h287v-545q0 -39 3 -70.5t13 -67t27.5 -59.5t48 -39.5t72.5 -15.5t72.5 15.5t48 39.5t27.5 59.5t13 67t3 70.5v545h286v-592q0 -220 -113.5 -333.5t-336.5 -113.5q-12 0 -23 1t-20.5 2.5t-19.5 4.5t-17 5.5t-16 7t-14.5 7t-14.5 8.5t-13 8.5t-13.5 9t-12.5 8.5
v-566h-287v1543z" />
    <glyph glyph-name="paragraph" unicode="&#xb6;" horiz-adv-x="1181" 
d="M1143 1544v-192h-125v-1665h-213v1665h-127v-1665h-213v893q-176 0 -291.5 117t-130.5 321q-7 92 23.5 186.5t88 169.5t144 122.5t184.5 47.5h660z" />
    <glyph glyph-name="periodcentered" unicode="&#xb7;" horiz-adv-x="591" 
d="M297 707q75 0 128.5 -53t53.5 -128t-53.5 -129.5t-128.5 -54.5t-128.5 54.5t-53.5 129.5t53.5 128t128.5 53z" />
    <glyph glyph-name="cedilla" unicode="&#xb8;" horiz-adv-x="778" 
d="M395 -41l189 -96l-238 -285l-151 78z" />
    <glyph glyph-name="onesuperior" unicode="&#xb9;" horiz-adv-x="708" 
d="M322 1389h-132v155h328v-926h-196v771z" />
    <glyph glyph-name="ordmasculine" unicode="&#xba;" horiz-adv-x="694" 
d="M348 1585q152 0 248 -90.5t96 -230.5q0 -142 -95.5 -232t-248.5 -90t-248.5 90t-95.5 232q0 140 96 230.5t248 90.5zM348 1434q-68 0 -110.5 -51t-42.5 -117t42.5 -119t110.5 -53t111 53t43 119t-42.5 117t-111.5 51z" />
    <glyph glyph-name="guillemotright" unicode="&#xbb;" horiz-adv-x="1052" 
d="M102 283l256 372l-254 383l177 115l325 -498l-325 -491zM512 283l256 372l-254 383l176 115l326 -498l-326 -491z" />
    <glyph glyph-name="onequarter" unicode="&#xbc;" horiz-adv-x="1775" 
d="M1587 309h107v-145h-107v-164h-184v164h-440v80l446 700h178v-635zM1403 309v369h-4l-211 -369h215zM1194 1597l139 -69l-827 -1591l-141 71zM213 1389h-131v155h328v-926h-197v771z" />
    <glyph glyph-name="onehalf" unicode="&#xbd;" horiz-adv-x="1775" 
d="M1100 1597l139 -69l-827 -1591l-142 71zM213 1389h-131v155h328v-926h-197v771zM1366 158h328v-158h-676l256 297q3 4 28.5 33.5t35.5 41.5t34.5 42.5t36.5 48t31 46t28 49t16 43.5t7 42q0 67 -34 109.5t-95 42.5t-93.5 -50.5t-29.5 -109.5h-207q9 140 94.5 227.5
t235.5 87.5q137 0 231.5 -85.5t94.5 -211.5q0 -93 -45.5 -170.5t-129.5 -167.5z" />
    <glyph glyph-name="threequarters" unicode="&#xbe;" horiz-adv-x="1775" 
d="M1587 309h107v-145h-107v-164h-184v164h-440v80l446 700h178v-635zM1403 309v369h-4l-211 -369h215zM1300 1597l140 -69l-828 -1591l-141 71zM305 1319h-186q12 122 93 194t214 72q130 0 209.5 -70.5t79.5 -189.5q0 -58 -24.5 -111t-72.5 -84q64 -26 97 -90.5t33 -134.5
q0 -134 -93.5 -214.5t-240.5 -80.5q-137 0 -230.5 84t-101.5 209h197q3 -58 42 -96.5t101 -38.5t98.5 44.5t36.5 102.5q0 60 -39.5 106t-101.5 42l-37 -2v129h22q61 0 94 35t33 94q0 49 -30.5 83t-83.5 34q-49 0 -78 -35t-31 -82z" />
    <glyph glyph-name="questiondown" unicode="&#xbf;" horiz-adv-x="997" 
d="M694 518v-407q-33 8 -73 8q-108 0 -185.5 -62t-77.5 -168q0 -68 38 -124t104 -56q65 0 101 50.5t36 117.5v25h299q6 -122 -51 -224t-159 -160.5t-224 -58.5q-189 0 -315 126t-126 315q0 152 91.5 270t238.5 152l17 196h286zM547 1053q75 0 128.5 -53t53.5 -128
t-53.5 -129.5t-128.5 -54.5t-128.5 54.5t-53.5 129.5t53.5 128t128.5 53z" />
    <glyph glyph-name="Agrave" unicode="&#xc0;" horiz-adv-x="1384" 
d="M963 326h-537l-127 -326h-317l602 1585h233l586 -1585h-322zM879 571l-193 562h-4l-170 -562h367zM414 1925l209 127l245 -344l-145 -90z" />
    <glyph glyph-name="Aacute" unicode="&#xc1;" horiz-adv-x="1384" 
d="M963 326h-537l-127 -326h-317l602 1585h233l586 -1585h-322zM879 571l-193 562h-4l-170 -562h367zM772 2052l209 -127l-309 -307l-146 90z" />
    <glyph glyph-name="Acircumflex" unicode="&#xc2;" horiz-adv-x="1384" 
d="M963 326h-537l-127 -326h-317l602 1585h233l586 -1585h-322zM879 571l-193 562h-4l-170 -562h367zM344 1737l348 315l348 -315l-122 -135l-226 213l-225 -213z" />
    <glyph glyph-name="Atilde" unicode="&#xc3;" horiz-adv-x="1384" 
d="M963 326h-537l-127 -326h-317l602 1585h233l586 -1585h-322zM879 571l-193 562h-4l-170 -562h367zM471 1704h-168q4 47 19.5 95t42 91.5t69 71t92.5 27.5q48 0 158 -43q14 -5 47 -19t52 -20t34 -6q8 0 16 1.5t13.5 3t12 6t10 6.5t9 9t8 10t7.5 12t6.5 11.5t7 13.5l6.5 13
h170q-9 -53 -27 -101t-47 -92t-73.5 -70t-99.5 -26q-46 0 -142 45t-135 45q-65 0 -88 -84z" />
    <glyph glyph-name="Adieresis" unicode="&#xc4;" horiz-adv-x="1384" 
d="M963 326h-537l-127 -326h-317l602 1585h233l586 -1585h-322zM879 571l-193 562h-4l-170 -562h367zM477 2028q67 0 115.5 -48t48.5 -116t-48.5 -116t-115.5 -48t-115.5 48t-48.5 116t48.5 116t115.5 48zM909 2028q67 0 115.5 -48t48.5 -116t-48.5 -116t-115.5 -48
t-115.5 48t-48.5 116t48.5 116t115.5 48z" />
    <glyph glyph-name="Aring" unicode="&#xc5;" horiz-adv-x="1384" 
d="M963 326h-537l-127 -326h-317l602 1585h233l586 -1585h-322zM879 571l-193 562h-4l-170 -562h367zM692 2052q85 0 145 -60t60 -145q0 -86 -60 -146.5t-145 -60.5t-145 60.5t-60 146.5q0 85 60 145t145 60zM692 1931q-35 0 -59.5 -25t-24.5 -59q0 -35 24.5 -60.5
t59.5 -25.5t59.5 25.5t24.5 60.5q0 34 -24.5 59t-59.5 25z" />
    <glyph glyph-name="AE" unicode="&#xc6;" horiz-adv-x="1886" 
d="M956 326h-534l-121 -326h-319l600 1544h761l95 -262h-512l125 -342h503l95 -262h-504l153 -416h512l93 -262h-826zM874 571l-190 525h-4l-170 -525h364z" />
    <glyph glyph-name="Ccedilla" unicode="&#xc7;" horiz-adv-x="1230" 
d="M1143 1495v-360q-63 77 -153 120t-187 43q-105 0 -192.5 -45.5t-144 -121t-87.5 -170t-31 -195.5q0 -132 53.5 -249.5t159 -194t240.5 -76.5q94 0 185.5 45t156.5 119v-359q-196 -92 -350 -92q-159 0 -300.5 65.5t-241 175t-157 256t-57.5 304.5q0 163 56 313.5
t154.5 263.5t242 180.5t309.5 67.5q180 0 344 -90zM623 -41l188 -96l-238 -285l-151 78z" />
    <glyph glyph-name="Egrave" unicode="&#xc8;" horiz-adv-x="999" 
d="M909 1282h-497v-340h479v-262h-479v-418h497v-262h-798v1544h798v-262zM221 1925l209 127l246 -344l-146 -90z" />
    <glyph glyph-name="Eacute" unicode="&#xc9;" horiz-adv-x="999" 
d="M909 1282h-497v-340h479v-262h-479v-418h497v-262h-798v1544h798v-262zM580 2052l208 -127l-309 -307l-145 90z" />
    <glyph glyph-name="Ecircumflex" unicode="&#xca;" horiz-adv-x="999" 
d="M909 1282h-497v-340h479v-262h-479v-418h497v-262h-798v1544h798v-262zM152 1737l348 315l348 -315l-123 -135l-225 213l-226 -213z" />
    <glyph glyph-name="Edieresis" unicode="&#xcb;" horiz-adv-x="999" 
d="M909 1282h-497v-340h479v-262h-479v-418h497v-262h-798v1544h798v-262zM285 2028q67 0 115.5 -48t48.5 -116t-48.5 -116t-115.5 -48t-115.5 48t-48.5 116t48.5 116t115.5 48zM717 2028q67 0 115.5 -48t48.5 -116t-48.5 -116t-115.5 -48t-115.5 48t-48.5 116t48.5 116
t115.5 48z" />
    <glyph glyph-name="Igrave" unicode="&#xcc;" horiz-adv-x="520" 
d="M412 1544v-1544h-301v1544h301zM2 1925l209 127l246 -344l-146 -90z" />
    <glyph glyph-name="Iacute" unicode="&#xcd;" horiz-adv-x="520" 
d="M412 1544v-1544h-301v1544h301zM309 2052l209 -127l-309 -307l-146 90z" />
    <glyph glyph-name="Icircumflex" unicode="&#xce;" horiz-adv-x="520" 
d="M412 1544v-1544h-301v1544h301zM-88 1737l348 315l348 -315l-123 -135l-225 213l-225 -213z" />
    <glyph glyph-name="Idieresis" unicode="&#xcf;" horiz-adv-x="520" 
d="M412 1544v-1544h-301v1544h301zM45 2028q67 0 115.5 -48t48.5 -116t-48.5 -116t-115.5 -48t-115.5 48t-48.5 116t48.5 116t115.5 48zM477 2028q67 0 115.5 -48t48.5 -116t-48.5 -116t-115.5 -48t-115.5 48t-48.5 116t48.5 116t115.5 48z" />
    <glyph glyph-name="Eth" unicode="&#xd0;" horiz-adv-x="1323" 
d="M111 0v690h-148v246h148v608h430q219 0 389.5 -101.5t263 -277.5t92.5 -395q0 -161 -55.5 -303t-152.5 -245t-237 -162.5t-302 -59.5h-428zM412 1282v-346h231v-246h-231v-428h49q136 0 236 36.5t160.5 105t89 160t28.5 208.5q0 253 -129 381.5t-385 128.5h-49z" />
    <glyph glyph-name="Ntilde" unicode="&#xd1;" horiz-adv-x="1554" 
d="M111 0v1585h217l813 -1079h4v1038h301v-1575h-217l-813 1080h-4v-1049h-301zM557 1704h-168q4 47 19.5 95t42 91.5t69 71t92.5 27.5q48 0 158 -43q14 -5 47 -19t52 -20t34 -6q8 0 16 1.5t13.5 3t12 6t10 6.5t9 9t8 10t7.5 12t6.5 11.5t7 13.5l6.5 13h170q-9 -53 -27 -101
t-47 -92t-73.5 -70t-99.5 -26q-46 0 -142 45t-135 45q-65 0 -88 -84z" />
    <glyph glyph-name="Ograve" unicode="&#xd2;" horiz-adv-x="1601" 
d="M1565 774q0 -170 -54 -319t-151 -259t-241.5 -173.5t-317.5 -63.5t-317.5 63.5t-241.5 173.5t-151 259t-54 319q0 229 94 413t269 291t401 107t401 -107t269 -291t94 -413zM1253 786q0 95 -31 184t-87.5 160.5t-143.5 114.5t-190 43q-83 0 -156 -28t-126.5 -76.5
t-92.5 -112.5t-58.5 -137t-19.5 -148t14.5 -147t49 -142t85.5 -123t129.5 -85.5t174.5 -32.5t174.5 32.5t129 85.5t85 123t49 142t14.5 147zM522 1925l209 127l246 -344l-146 -90z" />
    <glyph glyph-name="Oacute" unicode="&#xd3;" horiz-adv-x="1601" 
d="M1565 774q0 -170 -54 -319t-151 -259t-241.5 -173.5t-317.5 -63.5t-317.5 63.5t-241.5 173.5t-151 259t-54 319q0 229 94 413t269 291t401 107t401 -107t269 -291t94 -413zM1253 786q0 95 -31 184t-87.5 160.5t-143.5 114.5t-190 43q-83 0 -156 -28t-126.5 -76.5
t-92.5 -112.5t-58.5 -137t-19.5 -148t14.5 -147t49 -142t85.5 -123t129.5 -85.5t174.5 -32.5t174.5 32.5t129 85.5t85 123t49 142t14.5 147zM881 2052l209 -127l-310 -307l-145 90z" />
    <glyph glyph-name="Ocircumflex" unicode="&#xd4;" horiz-adv-x="1601" 
d="M1565 774q0 -170 -54 -319t-151 -259t-241.5 -173.5t-317.5 -63.5t-317.5 63.5t-241.5 173.5t-151 259t-54 319q0 229 94 413t269 291t401 107t401 -107t269 -291t94 -413zM1253 786q0 95 -31 184t-87.5 160.5t-143.5 114.5t-190 43q-83 0 -156 -28t-126.5 -76.5
t-92.5 -112.5t-58.5 -137t-19.5 -148t14.5 -147t49 -142t85.5 -123t129.5 -85.5t174.5 -32.5t174.5 32.5t129 85.5t85 123t49 142t14.5 147zM453 1737l348 315l348 -315l-123 -135l-225 213l-226 -213z" />
    <glyph glyph-name="Otilde" unicode="&#xd5;" horiz-adv-x="1601" 
d="M1565 774q0 -170 -54 -319t-151 -259t-241.5 -173.5t-317.5 -63.5t-317.5 63.5t-241.5 173.5t-151 259t-54 319q0 229 94 413t269 291t401 107t401 -107t269 -291t94 -413zM1253 786q0 95 -31 184t-87.5 160.5t-143.5 114.5t-190 43q-83 0 -156 -28t-126.5 -76.5
t-92.5 -112.5t-58.5 -137t-19.5 -148t14.5 -147t49 -142t85.5 -123t129.5 -85.5t174.5 -32.5t174.5 32.5t129 85.5t85 123t49 142t14.5 147zM580 1704h-168q4 47 19.5 95t42 91.5t69 71t92.5 27.5q48 0 158 -43q14 -5 47 -19t52 -20t34 -6q8 0 16 1.5t13.5 3t12 6t10 6.5
t9 9t8 10t7.5 12t6.5 11.5t7 13.5l6.5 13h170q-9 -53 -27 -101t-47 -92t-74 -70t-100 -26q-45 0 -141 45t-135 45q-65 0 -88 -84z" />
    <glyph glyph-name="Odieresis" unicode="&#xd6;" horiz-adv-x="1601" 
d="M1565 774q0 -170 -54 -319t-151 -259t-241.5 -173.5t-317.5 -63.5t-317.5 63.5t-241.5 173.5t-151 259t-54 319q0 229 94 413t269 291t401 107t401 -107t269 -291t94 -413zM1253 786q0 95 -31 184t-87.5 160.5t-143.5 114.5t-190 43q-83 0 -156 -28t-126.5 -76.5
t-92.5 -112.5t-58.5 -137t-19.5 -148t14.5 -147t49 -142t85.5 -123t129.5 -85.5t174.5 -32.5t174.5 32.5t129 85.5t85 123t49 142t14.5 147zM586 2028q68 0 116 -48t48 -116t-48 -116t-116 -48t-116 48t-48 116t48 116t116 48zM1018 2028q68 0 116 -48t48 -116t-48 -116
t-116 -48t-116 48t-48 116t48 116t116 48z" />
    <glyph glyph-name="multiply" unicode="&#xd7;" 
d="M68 877l172 172l354 -355l350 355l172 -172l-352 -353l352 -352l-172 -172l-352 354l-352 -354l-172 172l354 352z" />
    <glyph glyph-name="Oslash" unicode="&#xd8;" horiz-adv-x="1601" 
d="M1196 1032l-657 -692q108 -84 262 -84q96 0 174.5 32.5t129 85.5t85 123t49 142t14.5 147q0 135 -57 246zM408 506l655 694q-112 88 -262 88q-83 0 -156 -28t-126.5 -76.5t-92.5 -112.5t-58.5 -137t-19.5 -148q0 -151 60 -280zM-8 68l192 202q-147 210 -147 504
q0 229 94 413t269 291t401 107q276 0 475 -160l176 185l158 -140l-191 -200q146 -210 146 -496q0 -170 -54 -319t-151 -259t-241.5 -173.5t-317.5 -63.5q-275 0 -473 158l-185 -195z" />
    <glyph glyph-name="Ugrave" unicode="&#xd9;" horiz-adv-x="1351" 
d="M102 621v923h301v-864q0 -48 1.5 -85.5t8 -88t17.5 -87.5t31.5 -76.5t48.5 -64.5t70.5 -41t95.5 -16t95.5 16t70.5 41t48.5 64.5t31.5 76.5t17 87.5t7.5 87.5t1.5 86v864h301v-923q0 -116 -19.5 -214t-63 -181.5t-109.5 -142t-162.5 -91.5t-218.5 -33t-218.5 33
t-162.5 91.5t-110 142t-63.5 181.5t-19.5 214zM346 1925l209 127l246 -344l-146 -90z" />
    <glyph glyph-name="Uacute" unicode="&#xda;" horiz-adv-x="1351" 
d="M102 621v923h301v-864q0 -48 1.5 -85.5t8 -88t17.5 -87.5t31.5 -76.5t48.5 -64.5t70.5 -41t95.5 -16t95.5 16t70.5 41t48.5 64.5t31.5 76.5t17 87.5t7.5 87.5t1.5 86v864h301v-923q0 -116 -19.5 -214t-63 -181.5t-109.5 -142t-162.5 -91.5t-218.5 -33t-218.5 33
t-162.5 91.5t-110 142t-63.5 181.5t-19.5 214zM797 2052l209 -127l-310 -307l-145 90z" />
    <glyph glyph-name="Ucircumflex" unicode="&#xdb;" horiz-adv-x="1351" 
d="M102 621v923h301v-864q0 -48 1.5 -85.5t8 -88t17.5 -87.5t31.5 -76.5t48.5 -64.5t70.5 -41t95.5 -16t95.5 16t70.5 41t48.5 64.5t31.5 76.5t17 87.5t7.5 87.5t1.5 86v864h301v-923q0 -116 -19.5 -214t-63 -181.5t-109.5 -142t-162.5 -91.5t-218.5 -33t-218.5 33
t-162.5 91.5t-110 142t-63.5 181.5t-19.5 214zM328 1737l348 315l348 -315l-123 -135l-225 213l-225 -213z" />
    <glyph glyph-name="Udieresis" unicode="&#xdc;" horiz-adv-x="1351" 
d="M102 621v923h301v-864q0 -48 1.5 -85.5t8 -88t17.5 -87.5t31.5 -76.5t48.5 -64.5t70.5 -41t95.5 -16t95.5 16t70.5 41t48.5 64.5t31.5 76.5t17 87.5t7.5 87.5t1.5 86v864h301v-923q0 -116 -19.5 -214t-63 -181.5t-109.5 -142t-162.5 -91.5t-218.5 -33t-218.5 33
t-162.5 91.5t-110 142t-63.5 181.5t-19.5 214zM477 2028q67 0 115.5 -48t48.5 -116t-48.5 -116t-115.5 -48t-115.5 48t-48.5 116t48.5 116t115.5 48zM909 2028q67 0 115.5 -48t48.5 -116t-48.5 -116t-115.5 -48t-115.5 48t-48.5 116t48.5 116t115.5 48z" />
    <glyph glyph-name="Yacute" unicode="&#xdd;" horiz-adv-x="1202" 
d="M446 709l-479 835h350l271 -536l295 536h352l-487 -835v-709h-302v709zM754 2052l209 -127l-310 -307l-145 90z" />
    <glyph glyph-name="Thorn" unicode="&#xde;" horiz-adv-x="1081" 
d="M412 332v-332h-301v1544h301v-246h108q535 0 535 -479q0 -243 -127 -365t-367 -122h-149zM412 1049v-467h61q72 0 119 9.5t84.5 34.5t54.5 73t17 122q0 72 -19.5 119t-60 70t-87 31t-116.5 8h-53z" />
    <glyph glyph-name="germandbls" unicode="&#xdf;" horiz-adv-x="1148" 
d="M102 0v1237q0 118 25 211t77.5 164.5t142 110t210.5 38.5q200 0 325.5 -123t125.5 -323q0 -209 -156 -332q90 -39 151 -113t88 -162t27 -188q0 -251 -154.5 -402t-406.5 -151h-41v250q132 -4 216.5 88.5t84.5 226.5q0 136 -82.5 222.5t-218.5 87.5v241q102 -1 159.5 62
t57.5 166q0 83 -48 141.5t-130 58.5q-31 0 -56 -8.5t-42 -27t-29.5 -37.5t-20 -49.5t-12 -53.5t-6 -59.5t-1.5 -56t0.5 -55t0.5 -46.5v-1118h-287z" />
    <glyph glyph-name="agrave" unicode="&#xe0;" horiz-adv-x="1157" 
d="M1053 1006v-1006h-283v92h-4q-45 -59 -118.5 -92t-153.5 -33q-107 0 -196 46t-146.5 122.5t-89 173t-31.5 199.5q0 136 53 255t159.5 197t245.5 78q79 0 154 -33t127 -94v95h283zM559 221q105 0 172.5 87.5t67.5 195.5t-67.5 194t-172.5 86t-171 -86t-66 -194
q0 -69 28 -133t83.5 -107t125.5 -43zM270 1458l209 127l246 -344l-145 -90z" />
    <glyph glyph-name="aacute" unicode="&#xe1;" horiz-adv-x="1157" 
d="M1053 1006v-1006h-283v92h-4q-45 -59 -118.5 -92t-153.5 -33q-107 0 -196 46t-146.5 122.5t-89 173t-31.5 199.5q0 136 53 255t159.5 197t245.5 78q79 0 154 -33t127 -94v95h283zM559 221q105 0 172.5 87.5t67.5 195.5t-67.5 194t-172.5 86t-171 -86t-66 -194
q0 -69 28 -133t83.5 -107t125.5 -43zM680 1585l209 -127l-309 -307l-146 90z" />
    <glyph glyph-name="acircumflex" unicode="&#xe2;" horiz-adv-x="1157" 
d="M1053 1006v-1006h-283v92h-4q-45 -59 -118.5 -92t-153.5 -33q-107 0 -196 46t-146.5 122.5t-89 173t-31.5 199.5q0 136 53 255t159.5 197t245.5 78q79 0 154 -33t127 -94v95h283zM559 221q105 0 172.5 87.5t67.5 195.5t-67.5 194t-172.5 86t-171 -86t-66 -194
q0 -69 28 -133t83.5 -107t125.5 -43zM231 1270l349 315l348 -315l-123 -135l-225 213l-226 -213z" />
    <glyph glyph-name="atilde" unicode="&#xe3;" horiz-adv-x="1157" 
d="M1053 1006v-1006h-283v92h-4q-45 -59 -118.5 -92t-153.5 -33q-107 0 -196 46t-146.5 122.5t-89 173t-31.5 199.5q0 136 53 255t159.5 197t245.5 78q79 0 154 -33t127 -94v95h283zM559 221q105 0 172.5 87.5t67.5 195.5t-67.5 194t-172.5 86t-171 -86t-66 -194
q0 -69 28 -133t83.5 -107t125.5 -43zM358 1237h-168q4 47 20 95t42.5 91.5t69 71t92.5 27.5q47 0 157 -43q13 -5 47 -19t53 -20t34 -6q8 0 16 1.5t13.5 3t12 6t10 6.5t9 9t8 10t7.5 12t6.5 11.5t7 13.5l6.5 13h170q-9 -53 -27 -101t-47 -92t-74 -70t-100 -26q-45 0 -141 45
t-136 45q-65 0 -88 -84z" />
    <glyph glyph-name="adieresis" unicode="&#xe4;" horiz-adv-x="1157" 
d="M1053 1006v-1006h-283v92h-4q-45 -59 -118.5 -92t-153.5 -33q-107 0 -196 46t-146.5 122.5t-89 173t-31.5 199.5q0 136 53 255t159.5 197t245.5 78q79 0 154 -33t127 -94v95h283zM559 221q105 0 172.5 87.5t67.5 195.5t-67.5 194t-172.5 86t-171 -86t-66 -194
q0 -69 28 -133t83.5 -107t125.5 -43zM365 1561q67 0 115 -48t48 -116t-48 -116t-115 -48t-115.5 48.5t-48.5 115.5t48.5 115.5t115.5 48.5zM797 1561q67 0 115.5 -48.5t48.5 -115.5t-48.5 -115.5t-115.5 -48.5t-115.5 48.5t-48.5 115.5t48.5 115.5t115.5 48.5z" />
    <glyph glyph-name="aring" unicode="&#xe5;" horiz-adv-x="1157" 
d="M1053 1006v-1006h-283v92h-4q-45 -59 -118.5 -92t-153.5 -33q-107 0 -196 46t-146.5 122.5t-89 173t-31.5 199.5q0 136 53 255t159.5 197t245.5 78q79 0 154 -33t127 -94v95h283zM559 221q105 0 172.5 87.5t67.5 195.5t-67.5 194t-172.5 86t-171 -86t-66 -194
q0 -69 28 -133t83.5 -107t125.5 -43zM580 1585q85 0 144.5 -60t59.5 -145q0 -86 -59.5 -146t-144.5 -60t-145 60t-60 146q0 85 60 145t145 60zM580 1464q-35 0 -59.5 -25t-24.5 -59q0 -35 24.5 -60.5t59.5 -25.5t59.5 25.5t24.5 60.5q0 34 -24.5 59t-59.5 25z" />
    <glyph glyph-name="ae" unicode="&#xe6;" horiz-adv-x="1622" 
d="M934 635h383q-11 83 -62 143t-129 60q-81 0 -131 -59t-61 -144zM455 444q-65 0 -111.5 -37t-46.5 -100q0 -66 50.5 -101.5t119.5 -35.5q63 0 116.5 39t53.5 100q0 65 -56.5 100t-125.5 35zM1591 457h-661q0 -51 10.5 -96.5t32 -86t61.5 -64.5t94 -24q126 0 193 138
l264 -43q-52 -149 -174.5 -231.5t-282.5 -82.5q-114 0 -209 41t-149 125q-61 -80 -157.5 -123t-200.5 -43q-105 0 -191 34.5t-142 111t-56 184.5q0 105 55 181.5t140 112.5t188 36q130 0 233 -56v33q0 107 -61.5 161t-169.5 54q-125 0 -246 -45v223q160 41 280 41
q101 0 192.5 -37.5t137.5 -115.5q58 74 149.5 113.5t192.5 39.5q120 0 213 -42.5t150 -117.5t85.5 -172.5t28.5 -213.5v-35z" />
    <glyph glyph-name="ccedilla" unicode="&#xe7;" horiz-adv-x="862" 
d="M786 975v-277q-99 99 -211 99q-115 0 -184 -90.5t-69 -208.5q0 -122 72 -205.5t192 -83.5q114 0 200 96v-276q-112 -62 -247 -62q-145 0 -262.5 73t-181.5 194.5t-64 265.5q0 148 66.5 271t187 195t268.5 72q130 0 233 -63zM438 -41l189 -96l-238 -285l-151 78z" />
    <glyph glyph-name="egrave" unicode="&#xe8;" horiz-adv-x="1026" 
d="M995 457h-661q0 -51 10.5 -96.5t32 -86t61.5 -64.5t94 -24q126 0 193 138l264 -43q-52 -149 -174.5 -231.5t-282.5 -82.5q-115 0 -209.5 39.5t-158 109.5t-98.5 167t-35 211q0 116 31 214t90 172t153 116t213 42q120 0 213 -42.5t150 -117.5t85.5 -172.5t28.5 -213.5v-35
zM342 635h383q-11 84 -61.5 143.5t-128.5 59.5q-81 0 -131.5 -59t-61.5 -144zM205 1458l209 127l245 -344l-145 -90z" />
    <glyph glyph-name="eacute" unicode="&#xe9;" horiz-adv-x="1026" 
d="M995 457h-661q0 -51 10.5 -96.5t32 -86t61.5 -64.5t94 -24q126 0 193 138l264 -43q-52 -149 -174.5 -231.5t-282.5 -82.5q-115 0 -209.5 39.5t-158 109.5t-98.5 167t-35 211q0 116 31 214t90 172t153 116t213 42q120 0 213 -42.5t150 -117.5t85.5 -172.5t28.5 -213.5v-35
zM342 635h383q-11 84 -61.5 143.5t-128.5 59.5q-81 0 -131.5 -59t-61.5 -144zM614 1585l209 -127l-309 -307l-145 90z" />
    <glyph glyph-name="ecircumflex" unicode="&#xea;" horiz-adv-x="1026" 
d="M995 457h-661q0 -51 10.5 -96.5t32 -86t61.5 -64.5t94 -24q126 0 193 138l264 -43q-52 -149 -174.5 -231.5t-282.5 -82.5q-115 0 -209.5 39.5t-158 109.5t-98.5 167t-35 211q0 116 31 214t90 172t153 116t213 42q120 0 213 -42.5t150 -117.5t85.5 -172.5t28.5 -213.5v-35
zM342 635h383q-11 84 -61.5 143.5t-128.5 59.5q-81 0 -131.5 -59t-61.5 -144zM166 1270l348 315l348 -315l-123 -135l-225 213l-225 -213z" />
    <glyph glyph-name="edieresis" unicode="&#xeb;" horiz-adv-x="1026" 
d="M995 457h-661q0 -51 10.5 -96.5t32 -86t61.5 -64.5t94 -24q126 0 193 138l264 -43q-52 -149 -174.5 -231.5t-282.5 -82.5q-115 0 -209.5 39.5t-158 109.5t-98.5 167t-35 211q0 116 31 214t90 172t153 116t213 42q120 0 213 -42.5t150 -117.5t85.5 -172.5t28.5 -213.5v-35
zM342 635h383q-11 84 -61.5 143.5t-128.5 59.5q-81 0 -131.5 -59t-61.5 -144zM299 1561q67 0 115.5 -48.5t48.5 -115.5t-48.5 -115.5t-115.5 -48.5t-115.5 48.5t-48.5 115.5t48.5 115.5t115.5 48.5zM731 1561q67 0 115.5 -48.5t48.5 -115.5t-48.5 -115.5t-115.5 -48.5
t-115.5 48.5t-48.5 115.5t48.5 115.5t115.5 48.5z" />
    <glyph glyph-name="igrave" unicode="&#xec;" horiz-adv-x="518" 
d="M403 1006v-1006h-286v1006h286zM-20 1458l208 127l246 -344l-145 -90z" />
    <glyph glyph-name="iacute" unicode="&#xed;" horiz-adv-x="518" 
d="M403 1006v-1006h-286v1006h286zM328 1585l209 -127l-310 -307l-145 90z" />
    <glyph glyph-name="icircumflex" unicode="&#xee;" horiz-adv-x="518" 
d="M403 1006v-1006h-286v1006h286zM-88 1270l348 315l348 -315l-123 -135l-225 213l-225 -213z" />
    <glyph glyph-name="idieresis" unicode="&#xef;" horiz-adv-x="518" 
d="M403 1006v-1006h-286v1006h286zM45 1561q67 0 115.5 -48.5t48.5 -115.5t-48.5 -115.5t-115.5 -48.5t-115.5 48.5t-48.5 115.5t48.5 115.5t115.5 48.5zM477 1561q67 0 115.5 -48.5t48.5 -115.5t-48.5 -115.5t-115.5 -48.5t-115.5 48.5t-48.5 115.5t48.5 115.5t115.5 48.5z
" />
    <glyph glyph-name="eth" unicode="&#xf0;" horiz-adv-x="1122" 
d="M150 1610l202 153q119 -92 217 -188l246 156l123 -123l-246 -158q44 -48 70.5 -79t73 -92t77 -111.5t67.5 -126.5t58.5 -148.5t36.5 -166t15 -191.5q0 -129 -35.5 -231t-90.5 -163.5t-128 -102t-140.5 -56t-134.5 -15.5q-107 0 -202.5 37t-168 104.5t-115 170
t-42.5 225.5q0 118 39 217.5t106.5 166.5t157.5 104.5t192 37.5q73 0 164 -31q-43 86 -90.5 156t-126.5 156l-246 -158l-123 125l246 156q-101 98 -202 176zM561 784q-105 0 -171 -85.5t-66 -196.5q0 -108 66 -194.5t171 -86.5t171.5 86.5t66.5 194.5q0 111 -66.5 196.5
t-171.5 85.5z" />
    <glyph glyph-name="ntilde" unicode="&#xf1;" horiz-adv-x="1105" 
d="M389 1006v-93h4q82 125 262 125q349 0 349 -424v-614h-287v532q0 123 -13 170q-29 107 -143 107q-35 0 -63 -11.5t-45.5 -28t-30.5 -45.5t-19 -52.5t-9.5 -60t-4 -57.5t-0.5 -56v-498h-287v1006h287zM332 1237h-168q4 47 19.5 95t42 91.5t69 71t92.5 27.5q48 0 158 -43
q14 -5 47 -19t52 -20t34 -6q8 0 16 1.5t13.5 3t12 6t10 6.5t9 9t8 10t7.5 12t6.5 11.5t7 13.5l6.5 13h170q-9 -53 -27 -101t-47 -92t-74 -70t-100 -26q-45 0 -141 45t-135 45q-65 0 -88 -84z" />
    <glyph glyph-name="ograve" unicode="&#xf2;" horiz-adv-x="1122" 
d="M561 1038q234 0 381.5 -150.5t147.5 -385.5t-147 -385t-382 -150t-381.5 150t-146.5 385q0 236 147 386t381 150zM561 784q-105 0 -171 -85.5t-66 -196.5q0 -108 66 -194.5t171 -86.5t171.5 86.5t66.5 194.5q0 111 -66.5 196.5t-171.5 85.5zM252 1458l209 127l246 -344
l-146 -90z" />
    <glyph glyph-name="oacute" unicode="&#xf3;" horiz-adv-x="1122" 
d="M561 1038q234 0 381.5 -150.5t147.5 -385.5t-147 -385t-382 -150t-381.5 150t-146.5 385q0 236 147 386t381 150zM561 784q-105 0 -171 -85.5t-66 -196.5q0 -108 66 -194.5t171 -86.5t171.5 86.5t66.5 194.5q0 111 -66.5 196.5t-171.5 85.5zM662 1585l208 -127l-309 -307
l-145 90z" />
    <glyph glyph-name="ocircumflex" unicode="&#xf4;" horiz-adv-x="1122" 
d="M561 1038q234 0 381.5 -150.5t147.5 -385.5t-147 -385t-382 -150t-381.5 150t-146.5 385q0 236 147 386t381 150zM561 784q-105 0 -171 -85.5t-66 -196.5q0 -108 66 -194.5t171 -86.5t171.5 86.5t66.5 194.5q0 111 -66.5 196.5t-171.5 85.5zM213 1270l348 315l348 -315
l-123 -135l-225 213l-225 -213z" />
    <glyph glyph-name="otilde" unicode="&#xf5;" horiz-adv-x="1122" 
d="M561 1038q234 0 381.5 -150.5t147.5 -385.5t-147 -385t-382 -150t-381.5 150t-146.5 385q0 236 147 386t381 150zM561 784q-105 0 -171 -85.5t-66 -196.5q0 -108 66 -194.5t171 -86.5t171.5 86.5t66.5 194.5q0 111 -66.5 196.5t-171.5 85.5zM340 1237h-168q4 47 19.5 95
t42 91.5t69 71t92.5 27.5q48 0 158 -43q14 -5 47 -19t52 -20t34 -6q8 0 16 1.5t13.5 3t12 6t10 6.5t9 9t8 10t7.5 12t6.5 11.5t7 13.5l6.5 13h170q-9 -53 -27 -101t-47 -92t-73.5 -70t-99.5 -26q-46 0 -142 45t-135 45q-65 0 -88 -84z" />
    <glyph glyph-name="odieresis" unicode="&#xf6;" horiz-adv-x="1122" 
d="M561 1038q234 0 381.5 -150.5t147.5 -385.5t-147 -385t-382 -150t-381.5 150t-146.5 385q0 236 147 386t381 150zM561 784q-105 0 -171 -85.5t-66 -196.5q0 -108 66 -194.5t171 -86.5t171.5 86.5t66.5 194.5q0 111 -66.5 196.5t-171.5 85.5zM346 1561q68 0 116 -48.5
t48 -115.5t-48 -115.5t-116 -48.5t-116 48.5t-48 115.5t48 115.5t116 48.5zM778 1561q68 0 116 -48.5t48 -115.5t-48 -115.5t-116 -48.5t-116 48.5t-48 115.5t48 115.5t116 48.5z" />
    <glyph glyph-name="divide" unicode="&#xf7;" 
d="M592 299q70 0 120 -50.5t50 -119.5q0 -71 -50 -120.5t-120 -49.5t-120 49.5t-50 120.5q0 69 50 119.5t120 50.5zM592 1090q70 0 120 -50.5t50 -119.5q0 -70 -50 -120t-120 -50t-120 50t-50 120q0 69 50 119.5t120 50.5zM68 403v242h1048v-242h-1048z" />
    <glyph glyph-name="oslash" unicode="&#xf8;" horiz-adv-x="1155" 
d="M352 371l359 352q-64 61 -150 61q-105 0 -171 -85.5t-66 -196.5q0 -67 28 -131zM782 604l-346 -342q54 -41 125 -41q105 0 171.5 86.5t66.5 194.5q0 46 -17 102zM-12 20l149 148q-104 135 -104 334q0 236 147 386t381 150q203 0 340 -112l154 151l112 -102l-163 -164
q86 -134 86 -309q0 -235 -147 -385t-382 -150q-182 0 -313 94l-148 -145z" />
    <glyph glyph-name="ugrave" unicode="&#xf9;" horiz-adv-x="1095" 
d="M96 1006h287v-545q0 -39 3 -70.5t13 -67t27.5 -59.5t48 -39.5t72.5 -15.5t72.5 15.5t48 39.5t27.5 59.5t13 67t3 70.5v545h286v-592q0 -220 -113.5 -333.5t-336.5 -113.5q-224 0 -337.5 113.5t-113.5 333.5v592zM240 1458l209 127l245 -344l-145 -90z" />
    <glyph glyph-name="uacute" unicode="&#xfa;" horiz-adv-x="1095" 
d="M96 1006h287v-545q0 -39 3 -70.5t13 -67t27.5 -59.5t48 -39.5t72.5 -15.5t72.5 15.5t48 39.5t27.5 59.5t13 67t3 70.5v545h286v-592q0 -220 -113.5 -333.5t-336.5 -113.5q-224 0 -337.5 113.5t-113.5 333.5v592zM649 1585l209 -127l-309 -307l-146 90z" />
    <glyph glyph-name="ucircumflex" unicode="&#xfb;" horiz-adv-x="1095" 
d="M96 1006h287v-545q0 -39 3 -70.5t13 -67t27.5 -59.5t48 -39.5t72.5 -15.5t72.5 15.5t48 39.5t27.5 59.5t13 67t3 70.5v545h286v-592q0 -220 -113.5 -333.5t-336.5 -113.5q-224 0 -337.5 113.5t-113.5 333.5v592zM201 1270l348 315l348 -315l-123 -135l-225 213l-225 -213
z" />
    <glyph glyph-name="udieresis" unicode="&#xfc;" horiz-adv-x="1095" 
d="M96 1006h287v-545q0 -39 3 -70.5t13 -67t27.5 -59.5t48 -39.5t72.5 -15.5t72.5 15.5t48 39.5t27.5 59.5t13 67t3 70.5v545h286v-592q0 -220 -113.5 -333.5t-336.5 -113.5q-224 0 -337.5 113.5t-113.5 333.5v592zM334 1561q68 0 116 -48.5t48 -115.5t-48 -115.5
t-116 -48.5t-116 48.5t-48 115.5t48 115.5t116 48.5zM766 1561q68 0 116 -48.5t48 -115.5t-48 -115.5t-116 -48.5t-116 48.5t-48 115.5t48 115.5t116 48.5z" />
    <glyph glyph-name="yacute" unicode="&#xfd;" horiz-adv-x="1064" 
d="M391 154l-428 852h326l239 -572l258 572h320l-731 -1543h-316zM664 1585l208 -127l-309 -307l-145 90z" />
    <glyph glyph-name="thorn" unicode="&#xfe;" horiz-adv-x="1157" 
d="M389 1737v-824q49 58 124 91.5t155 33.5q103 0 191 -45.5t145.5 -120.5t89.5 -169.5t32 -194.5q0 -104 -31.5 -200.5t-88.5 -172.5t-146.5 -122t-197.5 -46q-79 0 -153 33.5t-116 93.5h-4v-631h-287v2274h287zM598 221q105 0 171.5 87.5t66.5 195.5t-66.5 194t-171.5 86
t-171.5 -86t-66.5 -194t66.5 -195.5t171.5 -87.5z" />
    <glyph glyph-name="ydieresis" unicode="&#xff;" horiz-adv-x="1064" 
d="M391 154l-428 852h326l239 -572l258 572h320l-731 -1543h-316zM334 1561q68 0 116 -48.5t48 -115.5t-48 -115.5t-116 -48.5t-116 48.5t-48 115.5t48 115.5t116 48.5zM766 1561q68 0 116 -48.5t48 -115.5t-48 -115.5t-116 -48.5t-116 48.5t-48 115.5t48 115.5t116 48.5z
" />
    <glyph glyph-name="dotlessi" unicode="&#x131;" horiz-adv-x="518" 
d="M403 1006v-1006h-286v1006h286z" />
    <glyph glyph-name="Lslash" unicode="&#x141;" horiz-adv-x="888" 
d="M29 520v254l147 103v667h301v-471l217 150v-258l-217 -148v-555h426v-262h-727v621z" />
    <glyph glyph-name="lslash" unicode="&#x142;" horiz-adv-x="579" 
d="M147 0v766l-151 -102v217l151 102v754h287v-572l150 101v-217l-150 -101v-948h-287z" />
    <glyph glyph-name="OE" unicode="&#x152;" horiz-adv-x="2127" 
d="M1550 1282v-342h465v-262h-465v-416h488v-262h-787v174q-188 -215 -473 -215q-156 0 -295.5 70t-236 183.5t-153 259.5t-56.5 296q0 155 55.5 302.5t151.5 261.5t236 183.5t298 69.5q137 0 262 -56t207 -159h4v174h787v-262h-488zM772 1288q-99 0 -185 -45t-142.5 -118.5
t-88.5 -166.5t-32 -190q0 -95 32 -186.5t88.5 -164t142.5 -117t185 -44.5q132 0 238 76t160.5 192t54.5 244q0 97 -32.5 190t-90 166.5t-144 118.5t-186.5 45z" />
    <glyph glyph-name="oe" unicode="&#x153;" horiz-adv-x="1787" 
d="M1096 635h383q-11 83 -62 143t-129 60q-81 0 -131 -59t-61 -144zM557 784q-105 0 -171.5 -85.5t-66.5 -196.5q0 -108 66.5 -194.5t171.5 -86.5t171.5 86.5t66.5 194.5q0 111 -66.5 196.5t-171.5 85.5zM1759 457h-661q0 -51 10.5 -96.5t32 -86t61.5 -64.5t94 -24
q126 0 193 138l264 -43q-52 -149 -174.5 -231.5t-282.5 -82.5q-253 0 -372 174q-65 -87 -161.5 -130.5t-205.5 -43.5q-235 0 -381.5 150t-146.5 385q0 236 147 386t381 150q221 0 367 -168q61 85 154.5 126.5t203.5 41.5q120 0 213 -42.5t150 -117.5t85.5 -172.5
t28.5 -213.5v-35z" />
    <glyph glyph-name="Scaron" unicode="&#x160;" horiz-adv-x="1077" 
d="M979 1413l-141 -209q-93 127 -232 127q-74 0 -131 -50.5t-57 -123.5q0 -52 34 -91t87.5 -65.5t119 -52.5t131 -62.5t119 -84t87.5 -128.5t34 -186q0 -235 -137.5 -381.5t-370.5 -146.5q-296 0 -475 301l195 191q32 -94 108.5 -160t169.5 -66q89 0 144 65.5t55 158.5
q0 43 -15.5 78.5t-35 57.5t-58.5 44.5t-62.5 32.5t-70.5 28q-18 7 -26 10q-82 34 -139 68t-107 83t-74.5 116.5t-24.5 154.5q0 194 129 328.5t322 134.5q107 0 230.5 -48.5t191.5 -123.5zM203 1919l123 133l241 -213l244 213l123 -133l-367 -317z" />
    <glyph glyph-name="scaron" unicode="&#x161;" horiz-adv-x="839" 
d="M741 934l-123 -166q-74 70 -151 70q-36 0 -65 -25t-29 -61q0 -21 10.5 -38t34 -31t44 -23t59 -24t59.5 -24q44 -19 77 -40.5t64.5 -54.5t48 -82t16.5 -111q0 -162 -113.5 -259.5t-277.5 -97.5q-101 0 -194.5 44.5t-159.5 123.5l131 170q105 -117 213 -117q48 0 81.5 30.5
t33.5 78.5q0 21 -8.5 39t-20.5 30t-35 24.5t-40 19.5t-48.5 19.5t-48.5 19.5q-44 19 -74.5 37.5t-62.5 49t-48 75t-16 102.5q0 142 90 233.5t230 91.5q86 0 175.5 -26.5t147.5 -77.5zM53 1452l123 133l242 -213l244 213l122 -133l-366 -317z" />
    <glyph glyph-name="Ydieresis" unicode="&#x178;" horiz-adv-x="1202" 
d="M446 709l-479 835h350l271 -536l295 536h352l-487 -835v-709h-302v709zM387 2028q67 0 115.5 -48t48.5 -116t-48.5 -116t-115.5 -48t-115.5 48t-48.5 116t48.5 116t115.5 48zM819 2028q67 0 115.5 -48t48.5 -116t-48.5 -116t-115.5 -48t-115.5 48t-48.5 116t48.5 116
t115.5 48z" />
    <glyph glyph-name="Zcaron" unicode="&#x17d;" horiz-adv-x="1177" 
d="M489 262h641v-262h-1120l680 1282h-575v262h1052zM254 1919l123 133l241 -213l244 213l123 -133l-367 -317z" />
    <glyph glyph-name="zcaron" unicode="&#x17e;" horiz-adv-x="985" 
d="M475 242h477v-242h-954l514 764h-434v242h907zM143 1452l123 133l242 -213l244 213l122 -133l-366 -317z" />
    <glyph glyph-name="florin" unicode="&#x192;" 
d="M780 1032h219l-20 -147h-221l-96 -596q-14 -85 -27 -146.5t-35 -131.5t-49 -118t-68.5 -95.5t-93.5 -75.5t-123.5 -45t-159.5 -17l-114 8l41 258l67 -4q71 0 120 22t81 79q44 80 78 309l88 553h-123l21 147h127l38 236q16 98 44 172t75 135.5t122 94t175 32.5
q104 0 180 -43l-41 -248q-59 35 -120 35q-25 0 -46 -10t-35 -22t-26.5 -37.5t-19 -40.5t-13.5 -48t-9 -43.5t-7 -42.5z" />
    <glyph glyph-name="circumflex" unicode="&#x2c6;" horiz-adv-x="819" 
d="M61 1270l349 315l348 -315l-123 -135l-225 213l-226 -213z" />
    <glyph glyph-name="caron" unicode="&#x2c7;" horiz-adv-x="819" 
d="M43 1452l123 133l242 -213l243 213l123 -133l-366 -317z" />
    <glyph glyph-name="uni02C9" unicode="&#x2c9;" horiz-adv-x="819" 
d="M18 1544h783v-180h-783v180z" />
    <glyph glyph-name="breve" unicode="&#x2d8;" horiz-adv-x="819" 
d="M55 1544h201q17 -70 49 -102q43 -43 105 -43q121 0 153 145h201q-13 -142 -112 -230.5t-242 -88.5t-242.5 88.5t-112.5 230.5z" />
    <glyph glyph-name="dotaccent" unicode="&#x2d9;" horiz-adv-x="778" 
d="M389 1561q67 0 115.5 -48.5t48.5 -115.5t-48.5 -115.5t-115.5 -48.5t-115.5 48.5t-48.5 115.5t48.5 115.5t115.5 48.5z" />
    <glyph glyph-name="ring" unicode="&#x2da;" horiz-adv-x="778" 
d="M389 1585q85 0 145 -60t60 -145q0 -86 -60 -146t-145 -60t-145 60t-60 146q0 85 60 145t145 60zM389 1464q-35 0 -59.5 -25t-24.5 -59q0 -35 24.5 -60.5t59.5 -25.5t59.5 25.5t24.5 60.5q0 34 -24.5 59t-59.5 25z" />
    <glyph glyph-name="ogonek" unicode="&#x2db;" horiz-adv-x="778" 
d="M354 -41h144v-4q-46 -31 -78.5 -73.5t-32.5 -90.5q0 -39 25.5 -66.5t64.5 -27.5q47 0 98 33l-28 -154q-53 -37 -141 -37q-82 0 -142.5 48t-60.5 128q0 72 43 136.5t108 107.5z" />
    <glyph glyph-name="tilde" unicode="&#x2dc;" horiz-adv-x="819" 
d="M188 1237h-168q4 47 20 95t42.5 91.5t69 71t92.5 27.5q47 0 157 -43q13 -5 47 -19t53 -20t34 -6q8 0 16 1.5t13.5 3t12 6t10 6.5t9 9t8 10t7.5 12t6.5 11.5t7 13.5l6.5 13h170q-9 -53 -27 -101t-47 -92t-74 -70t-100 -26q-45 0 -141 45t-136 45q-65 0 -88 -84z" />
    <glyph glyph-name="hungarumlaut" unicode="&#x2dd;" horiz-adv-x="860" 
d="M256 1585l209 -127l-309 -307l-146 90zM643 1585l209 -127l-309 -307l-146 90z" />
    <glyph glyph-name="uni03A9" unicode="&#x3a9;" horiz-adv-x="1492" 
d="M369 221v6q-111 113 -184.5 277.5t-73.5 363.5q0 198 80 362.5t228 262.5t335 98q119 0 222 -41.5t175.5 -111.5t124.5 -161t77 -191t25 -201q0 -205 -75 -377.5t-185 -280.5v-6h291v-221h-553v162q108 76 181 243.5t73 417.5q-1 144 -40 263.5t-122.5 197.5t-197.5 78
q-110 0 -195 -71t-130.5 -195.5t-45.5 -282.5q0 -232 74.5 -406.5t179.5 -244.5v-162h-553v221h289z" />
    <glyph glyph-name="uni03BC" unicode="&#x3bc;" horiz-adv-x="1095" 
d="M96 1006h287v-545q0 -39 3 -70.5t13 -67t27.5 -59.5t48 -39.5t72.5 -15.5t72.5 15.5t48 39.5t27.5 59.5t13 67t3 70.5v545h286v-592q0 -220 -113.5 -333.5t-336.5 -113.5q-12 0 -23 1t-20.5 2.5t-19.5 4.5t-17 5.5t-16 7t-14.5 7t-14.5 8.5t-13 8.5t-13.5 9t-12.5 8.5
v-566h-287v1543z" />
    <glyph glyph-name="pi" unicode="&#x3c0;" horiz-adv-x="1280" 
d="M1229 944h-152v-618q0 -199 29 -326h-258q-37 70 -37 315v629h-297q-11 -216 -49.5 -497.5t-91.5 -446.5h-256q53 192 91.5 470t43.5 474q-134 0 -209 -20l-31 180q91 74 346 74h891z" />
    <glyph glyph-name="endash" unicode="&#x2013;" horiz-adv-x="1024" 
d="M0 774h1024v-235h-1024v235z" />
    <glyph glyph-name="emdash" unicode="&#x2014;" horiz-adv-x="2048" 
d="M266 774h1516v-235h-1516v235z" />
    <glyph glyph-name="quoteleft" unicode="&#x2018;" horiz-adv-x="606" 
d="M326 940l-265 29l295 616l191 -22z" />
    <glyph glyph-name="quoteright" unicode="&#x2019;" horiz-adv-x="606" 
d="M285 1585l262 -31l-295 -614l-191 23z" />
    <glyph glyph-name="quotesinglbase" unicode="&#x201a;" horiz-adv-x="606" 
d="M285 319l262 -28l-295 -617l-191 23z" />
    <glyph glyph-name="quotedblleft" unicode="&#x201c;" horiz-adv-x="999" 
d="M717 940l-264 29l295 616l190 -22zM326 940l-265 29l295 616l191 -22z" />
    <glyph glyph-name="quotedblright" unicode="&#x201d;" horiz-adv-x="999" 
d="M285 1585l262 -31l-295 -614l-191 23zM676 1585l262 -31l-295 -614l-190 23z" />
    <glyph glyph-name="quotedblbase" unicode="&#x201e;" horiz-adv-x="999" 
d="M285 319l262 -28l-295 -617l-191 23zM676 319l262 -28l-295 -617l-190 23z" />
    <glyph glyph-name="dagger" unicode="&#x2020;" horiz-adv-x="1181" 
d="M457 1737h268v-492h332v-237h-332v-1207h-268v1207h-332v237h332v492z" />
    <glyph glyph-name="daggerdbl" unicode="&#x2021;" horiz-adv-x="1181" 
d="M457 1737h268v-432h332v-238h-332v-272h332v-238h-332v-754h-268v754h-332v238h332v272h-332v238h332v432z" />
    <glyph glyph-name="bullet" unicode="&#x2022;" horiz-adv-x="1181" 
d="M590 387q-159 0 -272 112t-113 273q-1 161 111.5 274t273.5 113t274 -113t113 -274q0 -160 -114 -272.5t-273 -112.5z" />
    <glyph glyph-name="ellipsis" unicode="&#x2026;" horiz-adv-x="2048" 
d="M342 330q75 0 128.5 -52.5t53.5 -127.5t-53.5 -130t-128.5 -55t-128.5 55t-53.5 130t53.5 127.5t128.5 52.5zM1024 324q75 0 128.5 -53t53.5 -128t-53.5 -129.5t-128.5 -54.5t-128.5 54.5t-53.5 129.5t53.5 128t128.5 53zM1706 324q75 0 128.5 -53t53.5 -128
t-53.5 -129.5t-128.5 -54.5t-128.5 54.5t-53.5 129.5t53.5 128t128.5 53z" />
    <glyph glyph-name="perthousand" unicode="&#x2030;" horiz-adv-x="2457" 
d="M414 1585q157 0 261.5 -103.5t104.5 -262.5q0 -158 -104 -261.5t-262 -103.5t-262.5 103.5t-104.5 261.5q0 159 104.5 262.5t262.5 103.5zM414 1419q-72 0 -118 -62t-46 -138t46 -137.5t118 -61.5t118 61.5t46 137.5t-46 138t-118 62zM1237 690q158 0 262.5 -103.5
t104.5 -262.5q0 -158 -104.5 -261.5t-262.5 -103.5t-262.5 103.5t-104.5 261.5q0 159 104.5 262.5t262.5 103.5zM1237 524q-72 0 -118 -62t-46 -138t46 -137.5t118 -61.5t118 61.5t46 137.5t-46 138t-118 62zM2046 690q158 0 262.5 -103.5t104.5 -262.5
q0 -158 -104.5 -261.5t-262.5 -103.5t-262.5 103.5t-104.5 261.5q0 159 104.5 262.5t262.5 103.5zM2046 524q-72 0 -118 -62t-46 -138t46 -137.5t118 -61.5t118 61.5t46 137.5t-46 138t-118 62zM1167 1597l140 -69l-828 -1591l-141 71z" />
    <glyph glyph-name="guilsinglleft" unicode="&#x2039;" horiz-adv-x="643" 
d="M285 655l256 -372l-179 -119l-325 491l325 498l177 -115z" />
    <glyph glyph-name="guilsinglright" unicode="&#x203a;" horiz-adv-x="643" 
d="M102 283l256 372l-254 383l177 115l325 -498l-325 -491z" />
    <glyph glyph-name="fraction" unicode="&#x2044;" horiz-adv-x="366" 
d="M526 1597l140 -69l-828 -1591l-141 71z" />
    <glyph glyph-name="Euro" unicode="&#x20ac;" 
d="M1092 1509v-266q-98 86 -285 86q-135 0 -211 -68.5t-98 -209.5h526l-70 -209h-481q-2 -18 -2 -62q0 -53 2 -71h434l-69 -209h-340q43 -289 311 -289q188 0 283 88v-272q-38 -25 -123 -45.5t-203 -20.5q-470 0 -549 539h-176l68 209h86q-5 45 -5 71q0 17 5 62h-154l68 209
h104q41 257 177.5 394.5t375.5 137.5q108 0 196 -23t130 -51z" />
    <glyph glyph-name="afii61289" unicode="&#x2113;" horiz-adv-x="1089" 
d="M944 383l107 -113q-149 -303 -437 -303q-96 0 -169 30t-117 83.5t-68.5 118.5t-30.5 143q0 19 -2 27q-18 -14 -56 -46t-56 -47l-66 146q130 109 176 156v573q0 143 30.5 253t83.5 176t120.5 99t146.5 33q145 0 219 -109.5t74 -283.5q0 -189 -107 -380t-309 -396v-103
q1 -126 54.5 -192t138.5 -66q79 0 147.5 57.5t120.5 143.5zM483 1145v-352q254 308 254 536q0 187 -119 187q-58 0 -96.5 -86t-38.5 -285z" />
    <glyph glyph-name="trademark" unicode="&#x2122;" horiz-adv-x="2048" 
d="M782 1544v-153h-260v-709h-176v709h-260v153h696zM1962 1544v-862h-176v686h-4l-250 -686h-170l-242 686h-4v-686h-176v862h305l201 -563h4l209 563h303z" />
    <glyph glyph-name="Omega" unicode="&#x2126;" horiz-adv-x="1492" 
d="M369 221v6q-111 113 -184.5 277.5t-73.5 363.5q0 198 80 362.5t228 262.5t335 98q119 0 222 -41.5t175.5 -111.5t124.5 -161t77 -191t25 -201q0 -205 -75 -377.5t-185 -280.5v-6h291v-221h-553v162q108 76 181 243.5t73 417.5q-1 144 -40 263.5t-122.5 197.5t-197.5 78
q-110 0 -195 -71t-130.5 -195.5t-45.5 -282.5q0 -232 74.5 -406.5t179.5 -244.5v-162h-553v221h289z" />
    <glyph glyph-name="estimated" unicode="&#x212e;" horiz-adv-x="1959" 
d="M1882 750h-1462q-12 0 -12 -11v-442q0 -28 20 -51q109 -112 252 -176t301 -64q171 0 322.5 72t259.5 198h129q-122 -145 -310 -230t-403 -85q-184 0 -351.5 64t-288 172.5t-192 258.5t-71.5 314q0 166 71.5 316.5t192 259.5t288 173t351.5 64t351.5 -64t288 -173
t192 -259.5t71.5 -316.5v-20zM1550 807v444q0 34 -20 54q-111 108 -252.5 169.5t-296.5 61.5q-157 0 -299.5 -63.5t-251.5 -174.5q-22 -22 -22 -55v-436q0 -3 4 -8.5t8 -5.5h1120q10 0 10 14z" />
    <glyph glyph-name="partialdiff" unicode="&#x2202;" horiz-adv-x="1224" 
d="M223 1425l-73 205q163 127 385 127q93 0 178.5 -33t160 -102t129 -168t86 -240t31.5 -309q0 -283 -69.5 -493t-204.5 -326.5t-322 -116.5q-86 0 -159.5 31t-124 83.5t-86.5 121t-53 143t-17 150.5q0 266 134 427.5t329 161.5q60 0 114.5 -18.5t92.5 -47.5t62.5 -55.5
t39.5 -50.5h2q2 18 2 76q0 143 -44 266t-127 199t-187 76q-155 0 -279 -107zM549 197h2q77 0 140 75.5t98 183.5t45 228q-18 65 -82.5 124.5t-153.5 59.5q-71 0 -129.5 -54t-90.5 -141t-32 -186q0 -125 56 -207.5t147 -82.5z" />
    <glyph glyph-name="Delta" unicode="&#x2206;" horiz-adv-x="1394" 
d="M59 0v160l488 1442h315l473 -1436v-166h-1276zM330 219h723l-234 666q-15 56 -62 205.5t-59 201.5h-6q-9 -42 -52.5 -177t-59.5 -197z" />
    <glyph glyph-name="product" unicode="&#x220f;" horiz-adv-x="1540" 
d="M1483 1321h-215v-1538h-264v1538h-469v-1538h-265v1538h-215v246h1428v-246z" />
    <glyph glyph-name="summation" unicode="&#x2211;" horiz-adv-x="1187" 
d="M1147 -217h-1096v178l520 717l-501 698v191h1042v-228h-688v-8l444 -606l-495 -682v-6h774v-254z" />
    <glyph glyph-name="minus" unicode="&#x2212;" 
d="M68 403v242h1048v-242h-1048z" />
    <glyph glyph-name="uni2215" unicode="&#x2215;" horiz-adv-x="366" 
d="M526 1597l140 -69l-828 -1591l-141 71z" />
    <glyph glyph-name="uni2219" unicode="&#x2219;" horiz-adv-x="591" 
d="M297 707q75 0 128.5 -53t53.5 -128t-53.5 -129.5t-128.5 -54.5t-128.5 54.5t-53.5 129.5t53.5 128t128.5 53z" />
    <glyph glyph-name="radical" unicode="&#x221a;" horiz-adv-x="1269" 
d="M1282 1882l-477 -2195h-215l-318 987l-157 -64l-45 154l364 145l219 -708q34 -154 43 -197l2 -4q34 207 35 213l365 1669h184z" />
    <glyph glyph-name="infinity" unicode="&#x221e;" horiz-adv-x="1695" 
d="M1591 649v-2q0 -171 -104 -274t-246 -103q-101 0 -193 55.5t-196 192.5q-98 -121 -191.5 -184.5t-214.5 -63.5q-139 0 -240.5 104t-101.5 263q0 163 103 268t258 105q114 0 207 -62.5t186 -181.5q86 97 121 129q128 115 276 115q145 -2 240.5 -101.5t95.5 -259.5z
M467 418h2q35 0 71.5 14t61.5 29.5t61.5 51.5t52.5 54t54 62q-85 111 -119 146q-89 89 -192 89q-93 0 -148 -65t-55 -164q0 -90 60.5 -153.5t150.5 -63.5zM1239 864h-2q-32 0 -65 -12t-56 -26t-55 -44t-46 -45t-44.5 -51.5t-36.5 -42.5q105 -129 169 -177t144 -48
q86 0 139.5 68t53.5 149q0 101 -56 165t-145 64z" />
    <glyph glyph-name="integral" unicode="&#x222b;" horiz-adv-x="858" 
d="M807 1911l-29 -189q-42 21 -76 21q-68 0 -106 -57q-33 -43 -46 -134.5t-13 -244.5q0 -178 15 -529t15 -555q0 -300 -80 -450q-40 -81 -114.5 -119.5t-161.5 -38.5q-99 0 -162 35l33 194q55 -22 92 -22q63 0 94 45q60 86 60 352q0 206 -16.5 565.5t-16.5 546.5
q0 195 30 312t99 192q44 49 111 74.5t139 25.5q79 0 133 -24z" />
    <glyph glyph-name="approxequal" unicode="&#x2248;" horiz-adv-x="1181" 
d="M999 1001l95 -86q-50 -103 -124.5 -165t-164.5 -62q-62 0 -112.5 19.5t-127.5 68.5q-45 28 -64.5 39t-54 23t-67.5 12q-34 0 -63 -12t-55 -39.5t-40.5 -47.5t-40.5 -59l-96 84q47 100 129.5 162.5t179.5 62.5q19 0 38 -2.5t33.5 -5t33 -9.5t28 -10.5t28 -13.5t23.5 -12.5
t24 -13.5t20 -12q9 -5 31 -18.5t29.5 -18t24.5 -14t26.5 -13t23 -8.5t26 -6.5t25.5 -1.5q59 0 101.5 39t90.5 120zM999 596l95 -86q-48 -102 -123 -163.5t-168 -61.5q-59 0 -110 19.5t-128 66.5q-44 28 -65.5 40t-55 23.5t-65.5 11.5q-34 0 -63 -12t-54.5 -39t-41 -48
t-40.5 -60l-96 86q47 100 129.5 162.5t179.5 62.5q30 0 57 -4.5t54.5 -16t41.5 -18t42.5 -23t32.5 -18.5q13 -7 39 -23t38.5 -23.5t32.5 -16.5t38 -13t38 -4q59 0 101 38.5t91 119.5z" />
    <glyph glyph-name="notequal" unicode="&#x2260;" horiz-adv-x="1181" 
d="M866 1137l-84 -195h295v-158h-352l-129 -297h481v-157h-538l-107 -246l-123 49l86 197h-291v157h351l127 297h-478v158h535l104 242z" />
    <glyph glyph-name="lessequal" unicode="&#x2264;" horiz-adv-x="1181" 
d="M1071 221l-954 492v170l952 491v-184l-801 -389v-4l803 -389v-187zM1079 -20h-973v159h973v-159z" />
    <glyph glyph-name="greaterequal" unicode="&#x2265;" horiz-adv-x="1181" 
d="M121 1374l954 -491v-170l-954 -492v187l799 389v4l-799 389v184zM1077 -20h-968v159h968v-159z" />
    <glyph glyph-name="lozenge" unicode="&#x25ca;" horiz-adv-x="1269" 
d="M1159 782l-424 -888h-215l-409 888l421 891h216zM924 776l-244 535q-34 104 -39 139h-8q-16 -68 -41 -139l-246 -523l246 -542q26 -89 35 -133h10q21 91 39 129z" />
    </font>
</defs>
</svg>
